Петро Дорошенко (2017) 720p

Нові коментарі

Нова тема   Відповісти
Автор Повідомлення
killer2015 
Поважний учасник


З нами з: 30.01.15
Востаннє: 28.10.20
Повідомлень: 151

2020-01-29 12:03  
Петро Дорошенко (2017) 720p

Петро Дорошенко (2017) 720p


Жанр: документальне, історичне
Країна: Україна

Телеканал / кіностудія: Всеукраїнське товариство "Просвіта"
Режисер: Дмитро Ломачук
Текст читав: Михайло Войчук

Сюжет:
"Сонцем Руїни" він назвав український народ, який завжди високо цінував честь, звитягу і мудрість своїх героїв. Він став символом боротьби за єдність та окремішність своєї держави. На тлі Руїни, коли країну очолювали то слабкодухий Юрасик Хмельницький, то відверті кар'єристи Павло Тетеря та Іван Брюховецький (один з них називав Україну польською провінцією, а другий - московського царя її володарем) "цілість отчизни" та прагнення того, "щоб в одній раді, а не в розбитті Україна перебувала" були визначальними в його політиці. Він постійно наполягав: «Українські землі мають простягатися від Перемишля і Ярослава по Сівськ та Путивль, бо саме туди сягало колись "князівство руське і ці кордони повинна теж осягнути козацька держава". Його любили за уважливість до простого народу. Часто, скликаючи загальні ради, питав думку населення щодо важливих політичних рішень. Писав від власного імені та від імені всіх козаків, що вони "не бажають бути ні рабами, ні данниками, а хочуть залишатись вільними..."


Тривалість: 00:25:00
Якість: 720р
Відео:
кодек:
розмір кадру: 1280 х 720
бітрейт: 1 376 кб/с

Аудіо:
мова: українська
переклад: оригінал
кодек: 2.0
бітрейт: 128 кб/с
МедіаІнфо
General
Complete name : G:\Фільми\Петро ДОРОШЕНКО.mp4
Format : MPEG-4
Format profile : Base Media / Version 2
Codec ID : mp42 (isom/mp42)
File size : 269 MiB
Duration : 25 min 0 s
Overall bit rate mode : Variable
Overall bit rate : 1 507 kb/s
Encoded date : UTC 2019-11-09 18:51:30
Tagged date : UTC 2019-11-09 18:51:30
gsst : 0
gstd : 1500218

Video
ID : 1
Format : AVC
Format/Info : Advanced Video Codec
Format profile : [email protected]
Format settings : CABAC / 3 Ref Frames
Format settings, CABAC : Yes
Format settings, Reference frames : 3 frames
Codec ID : avc1
Codec ID/Info : Advanced Video Coding
Duration : 25 min 0 s
Bit rate : 1 376 kb/s
Width : 1 280 pixels
Height : 720 pixels
Display aspect ratio : 16:9
Frame rate mode : Constant
Frame rate : 25.000 FPS
Color space : YUV
Chroma subsampling : 4:2:0
Bit depth : 8 bits
Scan type : Progressive
Bits/(Pixel*Frame) : 0.060
Stream size : 246 MiB (91%)
Title : ISO Media file produced by Google Inc. Created on: 11/09/2019.
Encoded date : UTC 2019-11-09 18:51:30
Tagged date : UTC 2019-11-09 18:51:30
Color range : Limited
Color primaries : BT.709
Transfer characteristics : BT.709
Matrix coefficients : BT.709
Codec configuration box : avcC

Audio
ID : 2
Format : LC
Format/Info : Advanced Audio Codec Low Complexity
Codec ID : mp4a-40-2
Duration : 25 min 0 s
Bit rate mode : Variable
Bit rate : 128 kb/s
Channel(s) : 2 channels
Channel layout : L R
Sampling rate : 44.1 kHz
Frame rate : 43.066 FPS (1024 SPF)
Compression mode : Lossy
Stream size : 22.9 MiB (8%)
Title : ISO Media file produced by Google Inc. Created on: 11/09/2019.
Language : English
Encoded date : UTC 2019-11-09 18:51:30
Tagged date : UTC 2019-11-09 18:51:30
Скріншоти




Джерело:


Золотий реліз (завантажене не впливає на рейтинг)
 Трекер:    Зареєстрований   

Завантажити / скачати фільм українською



відео для новачків



 Зареєстрований:   2020-01-29 12:03
 Розмір:   269 MB 
 Оцінка фільму:   10/10 (Голосів: 7)
   
Ваш часовий пояс: GMT + 2 Години

Нова тема   Відповісти