Іван Богун (2017) 1080p

Нові коментарі

Нова тема   Відповісти
Автор Повідомлення
killer2015 
Свій


З нами з: 30.01.15
Востаннє: 24.10.20
Повідомлень: 149

2020-01-29 12:39  
Іван Богун (2017) 1080p

Іван Богун (2017) 1080p


Жанр: документальне, історичне
Країна: Україна

Телеканал / кіностудія: Всеукраїнське товариство "Просвіта"
Режисер: Дмитро Ломачук
Актори: Михайло Волков, Андрій Зозуля, Олександр Давиденко, Олександр Ломов та інші

Сюжет:
Він був одним із найвідоміших козацьких полководців в Україні середини XVII століття, слава про якого гучно лунала не лише на українських землях, а й далеко за їх межами. Палко любив свою Україну і досить боляче реагував на кроки українських гетьманів, що могли утискати права козацької вольності. В політичному спектрі Української козацької держави займав місце постійного опозиціонера. Досить рішуче виступав проти укладення Богданом Хмельницьким Білоцерківського договору 1651року, засуджуючи при цьому політику поступок Польщі і зменшення козацького реєстру. Був у числі противників курсу Хмельницького на союз із Москвою так і не склавши присяги російському цареві. Згодом очолив антимосковську старшинську опозицію. Він став легендою ще за життя. Польський історик середини XVII століття Веспасіян Коховський писав: «Сміливий, розумний, надзвичайно популярний, вміє як ніхто інший, вдало діяти; сильний і хитрий, як лис; людина відважна і завзята».


Тривалість: 00:28:01
Якість:
Відео:
кодек: MPEG-4 AVC
розмір кадру: 1920 х 1080
бітрейт: 1 715 кб/с

Аудіо:
мова: українська
переклад: оригінал
кодек: 2.0
бітрейт: 128 кб/с
МедіаІнфо
General
Complete name : G:\Фільми\Іван БОГУН.mp4
Format : MPEG-4
Format profile : Base Media
Codec ID : isom (isom/iso2/avc1/mp41)
File size : 371 MiB
Duration : 28 min 1 s
Overall bit rate : 1 849 kb/s
Writing application : Lavf58.33.100

Video
ID : 1
Format : AVC
Format/Info : Advanced Video Codec
Format profile : [email protected]
Format settings : CABAC / 3 Ref Frames
Format settings, CABAC : Yes
Format settings, Reference frames : 3 frames
Codec ID : avc1
Codec ID/Info : Advanced Video Coding
Duration : 28 min 1 s
Bit rate : 1 715 kb/s
Width : 1 920 pixels
Height : 1 080 pixels
Display aspect ratio : 16:9
Frame rate mode : Constant
Frame rate : 25.000 FPS
Color space : YUV
Chroma subsampling : 4:2:0
Bit depth : 8 bits
Scan type : Progressive
Bits/(Pixel*Frame) : 0.033
Stream size : 344 MiB (93%)
Title : ISO Media file produced by Google Inc. Created on: 02/18/2019.
Color range : Limited
Color primaries : BT.709
Transfer characteristics : BT.709
Matrix coefficients : BT.709
Codec configuration box : avcC

Audio
ID : 2
Format : LC
Format/Info : Advanced Audio Codec Low Complexity
Codec ID : mp4a-40-2
Duration : 28 min 1 s
Bit rate mode : Constant
Bit rate : 128 kb/s
Channel(s) : 2 channels
Channel layout : L R
Sampling rate : 44.1 kHz
Frame rate : 43.066 FPS (1024 SPF)
Compression mode : Lossy
Stream size : 25.7 MiB (7%)
Title : ISO Media file produced by Google Inc. Created on: 02/18/2019.
Language : English
Default : Yes
Alternate group : 1
Скріншоти



Джерело:


Золотий реліз (завантажене не впливає на рейтинг)
 Трекер:    Зареєстрований   

Завантажити / скачати фільм українською



відео для новачків



 Зареєстрований:   2020-01-29 12:39
 Розмір:   371 MB 
 Оцінка фільму:   10/10 (Голосів: 6)
   
Ваш часовий пояс: GMT + 2 Години

Нова тема   Відповісти