Ода Кориця Нобунаґа / Oda Cinnamon Nobunaga (01-07 з 12) (2020) 720p Jap | Ukr Sub

Нові коментарі

Нова тема   Відповісти
Автор Повідомлення
Ash_Ketchup 
Новенький


З нами з: 16.10.19
Востаннє: 06.04.20
Повідомлень: 13

2020-01-28 23:42  
Ода Кориця Нобунаґа / Oda Cinnamon Nobunaga
(01-07 з 12) (2020) 720p Jap | Ukr Sub

Ода Кориця Нобунаґа / Oda Cinnamon Nobunaga (01-07 з 12) (2020) 720p Jap | Ukr Sub


Країна: Японія
Період трансляції: з 11.01.2020
Жанр: комедія, повсякденність
Аніместудія: Studio Pierrot
Режисер: Такахаші Хідетоші

Сюжет: Ода Нобунаґа - видатний військово-політичний діяч періоду Сенґоку. За своє життя він встиг здійснити немало мерзенних учинків, про які згадав, коли опинився перед обличчям смерті. Дивлячись в очі долі, Нобунаґа припустив, що за свої гріхи переродиться собакою... І його слова було почуто. Колись грізний полководець став м'яким і пухнастим шіба-іну! Та ще й з дивовижною кличкою - Кориця! Що ж чекає на Оду Нобунаґу в новому житті?

Кількість серій: 24 (1 серія / ~24 хв.)
Перелік серій
01. Людина з минулого: Я Ода Кориця Нобунаґа?
02. Молочник і полуничні трусики: Кохання у Хонно-джі?
03. Пси-повелителі і повернення битви при Окехазамі
04. Дощ - мелодія війни. Все починається з дощу
05. Полювання на демонів! Гольф! Старий пожвавлюється від вогню!
06 .Рок-н-рол! Краса! Погані новини?!
07. Я хочу захистити мир на Землі. Від Вольєра з любов'ю?

Відео:

якість:
контейнер:
кодек:
частота кадрів: 23.976 кадрів/сек.
розмір кадру: 1280х720 пікс
бітрейт: ~4000 кбіт/сек.
бітність: 8 біт

Аудіо:
мова: японська, оригінал
кодек:
кількість каналів: 2.0
бітрейт: ~256 кбіт/сек.
частота: 48000 Гц

Субтитри:
мова: українська, повні
формат:
тип: м'які, внутрішні

Переклад: MadAI
Скріншоти
MI
General
Unique ID : 210166658052233348749639938455810910376 (0x9E1CA041E4CD166E8107E1991ACCA8A8)
Complete name : E:\Фильмы\Oda Cinnamon Nobunaga\Oda Cinnamon Nobunaga (01) [ 720p UkrSub].
Format :
Format version : Version 4 / Version 2
File size : 706 MiB
Duration : 23 min 54 s
Overall bit rate : 4 130 kb/s
Encoded date : UTC 2020-01-28 20:28:50
Writing application : v13.0.0 ('The Juggler') 64bit
Writing library : libebml v1.3.4 + v1.4.5

Video
ID : 1
Format : AVC
Format/Info : Advanced Video Codec
Format profile : [email protected]
Format settings : CABAC / 6 Ref Frames
Format settings, CABAC : Yes
Format settings, ReFrames : 6 frames
Codec ID : V_MPEG4/ISO/AVC
Duration : 23 min 54 s
Bit rate : 4 000 kb/s
Width : 1 280 pixels
Height : 720 pixels
Display aspect ratio : 16:9
Frame rate mode : Constant
Frame rate : 23.976 (24000/1001) FPS
Color space : YUV
Chroma subsampling : 4:2:0
Bit depth : 8 bits
Scan type : Progressive
Bits/(Pixel*Frame) : 0.181
Stream size : 684 MiB (97%)
Writing library : core 142
Encoding settings : cabac=1 / ref=6 / deblock=1:1:1 / analyse=0x3:0x113 / me=umh / subme=8 / psy=1 / psy_rd=0.40:0.00 / mixed_ref=1 / me_range=16 / chroma_me=1 / trellis=1 / 8x8dct=1 / cqm=0 / deadzone=21,11 / fast_pskip=1 / chroma_qp_offset=-2 / threads=10 / lookahead_threads=1 / sliced_threads=0 / nr=0 / decimate=1 / interlaced=0 / bluray_compat=0 / constrained_intra=0 / bframes=0 / weightp=2 / keyint=96 / keyint_min=48 / scenecut=40 / intra_refresh=0 / rc_lookahead=48 / rc=2pass / mbtree=1 / bitrate=4000 / ratetol=1.0 / qcomp=0.60 / qpmin=0 / qpmax=69 / qpstep=4 / cplxblur=20.0 / qblur=0.5 / vbv_maxrate=6000 / vbv_bufsize=9000 / nal_hrd=none / filler=0 / ip_ratio=1.40 / aq=1:0.60
Default : Yes
Forced : No

Audio
ID : 2
Format : LC
Format/Info : Advanced Audio Codec Low Complexity
Codec ID : A_AAC-2
Duration : 23 min 54 s
Bit rate : 128 kb/s
Channel(s) : 2 channels
Channel layout : L R
Sampling rate : 44.1 kHz
Frame rate : 43.066 FPS (1024 SPF)
Compression mode : Lossy
Stream size : 21.9 MiB (3%)
Language : Ukrainian
Default : Yes
Forced : No

Text
ID : 3
Format :
Codec ID : S_TEXT/
Codec ID/Info : Advanced Sub Station Alpha
Duration : 23 min 48 s
Bit rate : 178 b/s
Count of elements : 411
Compression mode : Lossless
Stream size : 31.1 KiB (0%)
Title : MadAI
Language : Ukrainian
Default : Yes
Forced : Yes


Золотий реліз (завантажене не впливає на рейтинг)
 Трекер:    Зареєстрований   

Завантажити / скачати аніме українською



відео для новачків



 Зареєстрований:   2020-02-26 21:52
 Розмір:   4.82 GB 
 Оцінка аніме:   9.5/10 (Голосів: 2)
   
Ash_Ketchup 
Новенький


З нами з: 16.10.19
Востаннє: 06.04.20
Повідомлень: 13

2020-01-31 14:38  
Торент оновлено! Додано 3-тю серію!
Ash_Ketchup 
Новенький


З нами з: 16.10.19
Востаннє: 06.04.20
Повідомлень: 13

2020-02-01 23:45  
Торент оновлено! Додано 4-ту серію!
Ash_Ketchup 
Новенький


З нами з: 16.10.19
Востаннє: 06.04.20
Повідомлень: 13

2020-02-12 17:51  
Торент оновлено! Додано 5-ту серію!

Ash_Ketchup 
Новенький


З нами з: 16.10.19
Востаннє: 06.04.20
Повідомлень: 13

2020-02-26 21:53  
Торент оновлено! Додано 6-7 серії! 
Ваш часовий пояс: GMT + 2 Години

Нова тема   Відповісти