Нескінченний Дендрограм / Infinite Dendrogram (01-08 з 13) (2020) 720p Jap | Ukr Sub

Нові коментарі

Нова тема   Відповісти
Автор Повідомлення
Ash_Ketchup 
Новенький


З нами з: 16.10.19
Востаннє: 23.03.20
Повідомлень: 13

2020-01-28 16:43  
Нескінченний Дендрограм / Infinite Dendrogram
(01-08 з 13) (2020) 720p Jap | Ukr Sub

Нескінченний Дендрограм / Infinite Dendrogram (01-08 з 13) (2020) 720p Jap | Ukr Sub


Країна: Японія
Період трансляції: з 09.01.2020
Жанр: пригоди, комедія, фентезі



Аніместудія: NAZ
Режисер: Кобаяші Томокі

Сюжет: 15 липня 2043 року в продаж надійшла гра з повним зануренням - «Infinite Dendrogram». Унікальна система «Embryo» відкривала гравцям будь-який, ні, нескінченний вибір шаблонів розвитку. Досі подібне вважалося технічно неможливим у VRMMO, тому поява «Infinite Dendrogram» стала подією світового значення.
Успішно склавши вступні іспити на перший курс Токійського університету, Рейджі Мукудорі починає самотнє життя у великому місті. Щоб відзначити довгоочікуване закінчення тривалої і важкої підготовки до вступних іспитів, він нарешті занурюється в світ «Infinite Dendrogram», куди Рейджі давно вже запрошував його старший брат Шюїчі.

Кількість серій: 24 (1 серія / ~00:24:00)
Перелік серій
01. Початок можливостей
02. Лабіринт з могильних каменів
03. Вищий
04. Обернений прапор
05. Пекельна брама
06. За межею можливого
07. Місто дуелей
08. Зіткнення Вищих

Відео:

якість:
контейнер:
кодек:
частота кадрів: 23.976 кадрів/сек.
розмір кадру: 1280х720 пікс
бітрейт: ~3500 кбіт/сек.
бітність: 8 біт

Аудіо:
мова: японська, оригінал
кодек:
кількість каналів: 2.0
бітрейт: ~256 кбіт/сек.
частота: 48000 Гц

Субтитри:
мова: українська, повні
формат:
тип: програмні (м'які)

Переклад: MadAI
Скріншоти
MI
General
Unique ID : 222269389408342796137365595967907420468 (0xA73786FBB4946F85BA6D39D96A73D934)
Complete name : E:\Фильмы\Infinite Dendrogram (2020, AVC 720p, RUS JAP+SUB)\Infinite Dendrogram (01) ( 720p, Ukr Sub).
Format :
Format version : Version 4 / Version 2
File size : 589 MiB
Duration : 23 min 48 s
Overall bit rate : 3 461 kb/s
Encoded date : UTC 2020-01-28 13:05:11
Writing application : v7.0.0 ('Where We Going') 64bit built on Jun 9 2014 15:16:27
Writing library : libebml v1.3.0 + v1.4.1
Attachments : OpenSans-Semibold_1.ttf / OpenSans-SemiboldItalic.ttf / tahoma.ttf / tahomabd.ttf / 9420.ttf / Blogger Sans.ttf / FontinSans_Cyrillic.otf

Video
ID : 1
Format : AVC
Format/Info : Advanced Video Codec
Format profile : [email protected]
Format settings : CABAC / 4 Ref Frames
Format settings, CABAC : Yes
Format settings, ReFrames : 4 frames
Codec ID : V_MPEG4/ISO/AVC
Duration : 23 min 48 s
Bit rate : 3 191 kb/s
Nominal bit rate : 3 500 kb/s
Width : 1 280 pixels
Height : 720 pixels
Display aspect ratio : 16:9
Frame rate mode : Constant
Frame rate : 23.976 (24000/1001) FPS
Color space : YUV
Chroma subsampling : 4:2:0
Bit depth : 8 bits
Scan type : Progressive
Bits/(Pixel*Frame) : 0.144
Stream size : 543 MiB (92%)
Writing library : core 157 r2948 dada181
Encoding settings : cabac=1 / ref=1 / deblock=1:0:0 / analyse=0x1:0x111 / me=hex / subme=7 / psy=1 / psy_rd=1.00:0.00 / mixed_ref=0 / me_range=16 / chroma_me=1 / trellis=1 / 8x8dct=0 / cqm=0 / deadzone=21,11 / fast_pskip=1 / chroma_qp_offset=-2 / threads=22 / lookahead_threads=3 / sliced_threads=0 / nr=0 / decimate=1 / interlaced=0 / bluray_compat=0 / constrained_intra=0 / bframes=2 / b_pyramid=2 / b_adapt=1 / b_bias=0 / direct=1 / weightb=1 / open_gop=0 / weightp=2 / keyint=48 / keyint_min=4 / scenecut=40 / intra_refresh=0 / rc_lookahead=40 / rc=cbr / mbtree=1 / bitrate=3500 / ratetol=1.0 / qcomp=0.60 / qpmin=0 / qpmax=69 / qpstep=4 / vbv_maxrate=3500 / vbv_bufsize=10500 / nal_hrd=none / filler=0 / ip_ratio=1.40 / aq=1:1.00
Default : Yes
Forced : No

Audio
ID : 2
Format : LC
Format/Info : Advanced Audio Codec Low Complexity
Codec ID : A_AAC-2
Duration : 23 min 48 s
Bit rate : 253 kb/s
Channel(s) : 2 channels
Channel layout : L R
Sampling rate : 48.0 kHz
Frame rate : 46.875 FPS (1024 SPF)
Compression mode : Lossy
Delay relative to video : -42 ms
Stream size : 43.1 MiB (7%)
Language : Japanese
Default : Yes
Forced : No

Text
ID : 3
Format :
Codec ID : S_TEXT/
Codec ID/Info : Advanced Sub Station Alpha
Duration : 23 min 41 s
Bit rate : 190 b/s
Count of elements : 348
Compression mode : Lossless
Stream size : 33.0 KiB (0%)
Title : MadAI
Language : Ukrainian
Default : Yes
Forced : Yes


Золотий реліз (завантажене не впливає на рейтинг)
 Трекер:    Зареєстрований   

Завантажити / скачати аніме українською



відео для новачків



 Зареєстрований:   2020-03-11 23:28
 Розмір:   4.57 GB 
 Оцінка аніме:   9.7/10 (Голосів: 3)
   
Ash_Ketchup 
Новенький


З нами з: 16.10.19
Востаннє: 23.03.20
Повідомлень: 13

2020-02-01 21:45  
Торент оновлено! Додано 4-ту серію!
Ash_Ketchup 
Новенький


З нами з: 16.10.19
Востаннє: 23.03.20
Повідомлень: 13

2020-02-10 23:51  
Торент оновлено! Додано 5-ту серію!
Ash_Ketchup 
Новенький


З нами з: 16.10.19
Востаннє: 23.03.20
Повідомлень: 13

2020-02-18 18:48  
Торент оновлено! Додано 6-ту серію!

Ash_Ketchup 
Новенький


З нами з: 16.10.19
Востаннє: 23.03.20
Повідомлень: 13

2020-03-11 23:29  
Торент оновлено! Додано 8-му серію!
Ваш часовий пояс: GMT + 2 Години

Нова тема   Відповісти