Іван Сірко (2018) 1080p

Нові коментарі

Нова тема   Відповісти
Автор Повідомлення
killer2015 
Свій


З нами з: 30.01.15
Востаннє: 21.10.20
Повідомлень: 144

2020-01-28 16:15  
Іван Сірко (2018) 1080p

Іван Сірко (2018) 1080p


Жанр: документальне, історичне
Країна: Україна

Телеканал / кіностудія: Всеукраїнське товариство "Просвіта"
Режисер: Дмитро Ломачук
Актори: Андрій Зозуля, Діма Сивак, Олександр Давиденко, Олексій Степаненко та інші.

Сюжет:
Він є однією з найбільш легендарних і улюблених історичних постатей козацької епохи, чи не найяскравішою особистістю по смерті Богдана Хмельницького. .Його народження було незвичайним - хлопчик народився із зубами, чим налякав всіх присутніх! Батько заявив: «Іван зубами буде гризти ворогів!». Але це мало заспокоїло селян. До дитини ставилися з побоюванням. І в якійсь мірі це було виправдано! Ще з дитинства проявляв незвичайні здібності, які згодом стали просто надприродніми. Згідно народних оповідей, не програв жодного бою, підписав знаменитий лист запорожців турецькому султану, брав участь у взятті фортеці Дюнкерк під час Тридцятирічної війни. Називали перевертнем і характерником, а турки - Урус-шайтаном...
Бурхливим стало не тільки його земне життя, а й посмертне. Заповівши козакам після смерті відрізати праву руку і ходити з нею в походи козаки, зустрічаючись з ворогом, виставляли її вперед зі словами: «Душа Івана і рука з нами!» Тому запорожців ще довго боялися і турки, і ляхи. В одному з безлічі переказів його навіть називали Сірентієм Праворучніком... Руку кошового отамана поховали тільки після зруйнування Запорозької Січі... А на могилі був напис: «Хто буде сім років перед Великоднем виносити по три заповнені шапки землі на мою могилу, то буде мати таку силу, як я, і знатиме стільки, скільки і я».


Тривалість: 00:28:43
Якість:
Відео:
кодек: MPEG-4 AVC
розмір кадру: 1920 х 1080
бітрейт: 1915 кб/с

Аудіо:
мова: українська
переклад: оригінал
кодек: 2.0
бітрейт: 128 кб/с
МедіаІнфо
General
Complete name : G:\Фільми\Іван СІРКО.mp4
Format : MPEG-4
Format profile : Base Media
Codec ID : isom (isom/iso2/avc1/mp41)
File size : 421 MiB
Duration : 28 min 43 s
Overall bit rate : 2 050 kb/s
Writing application : Lavf58.33.100

Video
ID : 1
Format : AVC
Format/Info : Advanced Video Codec
Format profile : [email protected]
Format settings : CABAC / 3 Ref Frames
Format settings, CABAC : Yes
Format settings, Reference frames : 3 frames
Codec ID : avc1
Codec ID/Info : Advanced Video Coding
Duration : 28 min 43 s
Bit rate : 1 915 kb/s
Width : 1 920 pixels
Height : 1 080 pixels
Display aspect ratio : 16:9
Frame rate mode : Constant
Frame rate : 25.000 FPS
Color space : YUV
Chroma subsampling : 4:2:0
Bit depth : 8 bits
Scan type : Progressive
Bits/(Pixel*Frame) : 0.037
Stream size : 394 MiB (93%)
Title : ISO Media file produced by Google Inc. Created on: 03/28/2019.
Writing library : core 155 r2901 7d0ff22
Color range : Limited
Color primaries : BT.709
Transfer characteristics : BT.709
Matrix coefficients : BT.709
Codec configuration box : avcC

Audio
ID : 2
Format : LC
Format/Info : Advanced Audio Codec Low Complexity
Codec ID : mp4a-40-2
Duration : 28 min 43 s
Bit rate mode : Constant
Bit rate : 128 kb/s
Channel(s) : 2 channels
Channel layout : L R
Sampling rate : 44.1 kHz
Frame rate : 43.066 FPS (1024 SPF)
Compression mode : Lossy
Stream size : 26.3 MiB (6%)
Title : ISO Media file produced by Google Inc. Created on: 03/28/2019.
Language : English
Default : Yes
Alternate group : 1
Скріншоти




Джерело:


Золотий реліз (завантажене не впливає на рейтинг)
 Трекер:    Зареєстрований   

Завантажити / скачати фільм українською



відео для новачків



 Зареєстрований:   2020-01-28 16:15
 Розмір:   421 MB 
 Оцінка фільму:   8.7/10 (Голосів: 16)
   
Papay346 
Новенький


З нами з: 22.02.09
Востаннє: 20.10.20
Повідомлень: 6

2020-01-28 19:43  
Щойно прочитав "Характерника" Шкляра, там саме про Сірка.
І одразу трапився фільм про цю цікаву неординарну історичну постать.
Дякую.

Атлет 
Попереджень: 1
Попереджень: 1 


З нами з: 26.07.18
Востаннє: 20.10.20
Повідомлень: 176

2020-02-12 16:54  
Особливо сподобалось порівняння з героєм Батьківщини Махно Нестором - світлина №2. Не кожна держава може похизуватися своїм тюремним теплом перевиховання відсталого селянина в борця.
vit84 
Новенький


З нами з: 19.03.12
Востаннє: 17.10.20
Повідомлень: 3

2020-02-24 00:52  
Цікавий фільм, але присутній явний дисонанс розповіді і картинки. Інколи взагалі враження, що відео немає жодного відношення до розповіді.
Ваш часовий пояс: GMT + 2 Години

Нова тема   Відповісти