Опівнічна закусочна (сезон 1, серія 1 з 10) / Shin'ya shokudô: Tokyo Stories (season 1, episode 1 from 10) (2016) Jpn | sub Ukr

Нові коментарі

Нова тема   Відповісти
Останній раз роздавалося Час_настал (2020-11-29)
Автор Повідомлення
Час_настал 
VIP


З нами з: 01.07.10
Востаннє: 28.11.20
Повідомлень: 350

2020-01-27 23:57  
Опівнічна закусочна (сезон 1, серія 1 з 10) / Shin'ya shokudô: Tokyo Stories (season 1, episode 1 from 10 (2016) Jpn | sub Ukr

Опівнічна закусочна (сезон 1, серія 1 з 10) / Shin'ya shokudô: Tokyo Stories (season 1, episode 1 from 10) (2016) Jpn | sub Ukr


Країна: Японія, США
Жанр: Драма



Кінокомпанія: Netflix
Режисер: Джьоджі Матцуока, Нобухіро Ямашіта
Актори: Яроу Абе, Кенсакі Коджіма, Катцухіко Манабе та інші

Сюжет:
У серіалі розповідається про нічну закусочну, що знаходиться у Токіо, та людей, що її відвідують.

P.S. Це мій перший переклад з японської, тому нові серії з'являтимуться доволі повільно.
P.P.S. Аби уникнути випадків канібалізму, раджу усім добряче натовктися перед переглядомHappy.
Перелік серій

Серія 1 - Танмен
Тривалість: 00:24:00
Якість:
Відео:
кодек:
розмір кадру: 720 х 400
бітрейт: 1 100 кб/с

Аудіо:
мова: японська
переклад: оригінал
кодек: 2.0
бітрейт: 256 кб/с

Субтитри:
мова: українська
тип: програмні (м'які)
формат: *.srt
Медіа інфо

Опівнічна закусочна С1Еп01_Танмен.mp4
Format : MPEG-4
Format profile : Base Media
Codec ID : isom (isom/iso2/avc1/mp41)
File size : 228 MiB
Duration : 23 min 59 s
Overall bit rate : 1 327 kb/s
Movie name : Midnight.Diner.Tokyo.Stories.S01E01..-ION10
Encoded date : UTC 2019-11-25 10:52:28
Tagged date : UTC 2019-11-25 10:52:28
Writing application : Lavf58.0.101
Comment : Midnight.Diner.Tokyo.Stories.S01E01..-ION10

Video
ID : 1
Format : AVC
Format/Info : Advanced Video Codec
Format profile : [email protected]
Format settings : CABAC / 5 Ref Frames
Format settings, CABAC : Yes
Format settings, ReFrames : 5 frames
Codec ID : avc1
Codec ID/Info : Advanced Video Coding
Duration : 23 min 59 s
Bit rate : 1 100 kb/s
Width : 720 pixels
Height : 400 pixels
Display aspect ratio : 16:9
Frame rate mode : Constant
Frame rate : 23.976 (24000/1001) FPS
Color space : YUV
Chroma subsampling : 4:2:0
Bit depth : 8 bits
Scan type : Progressive
Bits/(Pixel*Frame) : 0.159
Stream size : 183 MiB (80%)
Title : Midnight.Diner.Tokyo.Stories.S01E01..-ION10
Writing library : core 148 r2795M aaa9aa8
Encoding settings : cabac=1 / ref=5 / deblock=1:-1:-1 / analyse=0x3:0x113 / me=umh / subme=9 / psy=1 / psy_rd=1.00:0.15 / mixed_ref=1 / me_range=16 / chroma_me=1 / trellis=2 / 8x8dct=1 / cqm=0 / deadzone=21,11 / fast_pskip=1 / chroma_qp_offset=-3 / threads=24 / lookahead_threads=2 / sliced_threads=0 / nr=0 / decimate=1 / interlaced=0 / bluray_compat=0 / constrained_intra=0 / bframes=3 / b_pyramid=2 / b_adapt=2 / b_bias=0 / direct=3 / weightb=1 / open_gop=0 / weightp=2 / keyint=250 / keyint_min=23 / scenecut=40 / intra_refresh=0 / rc_lookahead=50 / rc=abr / mbtree=1 / bitrate=1100 / ratetol=1.0 / qcomp=0.60 / qpmin=0 / qpmax=69 / qpstep=4 / ip_ratio=1.40 / aq=1:1.00
Encoded date : UTC 2019-11-25 10:52:28
Tagged date : UTC 2019-11-25 10:52:28

Audio
ID : 2
Format :
Format/Info : Advanced Audio Codec
Format profile : LC
Codec ID : mp4a-40-2
Duration : 23 min 59 s
Bit rate mode : Constant
Bit rate : 256 kb/s
Channel(s) : 2 channels
Channel positions : Front: L R
Sampling rate : 48.0 kHz
Frame rate : 46.875 FPS (1024 SPF)
Compression mode : Lossy
Stream size : 43.9 MiB (19%)
Title : Midnight.Diner.Tokyo.Stories.S01E01..-ION10
Language : Japanese
Default : Yes
Alternate group : 1
Encoded date : UTC 2019-11-25 10:52:28
Tagged date : UTC 2019-11-25 10:52:28
Скріншоти


Джерело:
Особиста оцінка: 10 - без зайвих вагань рекомендую всім!


Золотий реліз (завантажене не впливає на рейтинг)
 Трекер:    Зареєстрований   

Завантажити / скачати серіал українською



відео для новачків



 Зареєстрований:   2020-01-27 23:57
 Розмір:   228 MB 
 Оцінка серіалу:   10/10 (Голосів: 1)
   
volo93 
Новенький


З нами з: 25.05.12
Востаннє: 29.11.20
Повідомлень: 3

2020-05-09 20:24  
Кумедний серіал, навіть з посилом)
Ваш часовий пояс: GMT + 2 Години

Нова тема   Відповісти