Зараза (Епідемія страху) / Contagion (2011) Remux 1080p 2xUkr/Eng | Sub Ukr/Eng

Нові коментарі

Нова тема   Відповісти
Автор Повідомлення
Anonymous 







2020-01-27 22:53  
Зараза / Епідемія страху / Contagion (2011) Remux 1080p 2xUkr/Eng | Sub Ukr/Eng

Зараза (Епідемія страху) / Contagion (2011) Remux 1080p 2xUkr/Eng | Sub Ukr/Eng


Жанр: драма, трилер
Країна: США, ОАЕ



Кінокомпанія: Warner Bros. Pictures, Participant Media, Imagenation Abu Dhabi FZ
Режисер: Стівен Содерберг
Актори: Маріон Котійяр, Метт Деймон, Лоренс Фішберн, Джуд Лоу, Гвінет Пелтроу, Кейт Уїнслет, Брайан Кренстон, Дженніфер Ель, Санаа Летен, Тінг Яу Цуй та інші

Сюжет:
Міжнародна організація лікарів спільно з Центром з контролю і профілактики захворювань США намагається перешкодити поширенню смертельного вірусу.


Тривалість: 01:46:25
Якість: Remux 1080p
Відео:
кодек:
розмір кадру: 1920x1080
бітрейт: 16845 кб/с

Аудіо # 1:
мова: українська
переклад: професійний дубльований | студія Postmodern
кодек: 5.1
бітрейт: 384 кб/с
Інформація про дубляж

Фільм дубльовано компанією Postmodern
Переклад: Сергія Ковальчука
Режисер дубляжу: Катерина Брайковська
Звукорежисер: Олександр Мостовенко
Координатор проекту: Катерина Фуртас
Ролі дублювали: Мет Деймон - Андрій Твердак, Світлана Шекера, Лоуренс Фішберн - Михайло Кришталь, Ірина Ткаленко, Джуд Лоу - Іван Розін, Наталя-Романько Кисельова, Олена Яблучна, Джон Гоукс - Олег Лепенець, Дмитро Вікулов, Євген Пашин, Сан Фенг - Роман Чупіс та інші.
Аудіо # 2:
мова: українська
переклад: багатоголосий закадровий
кодек: 2.0
бітрейт: 192 кб/с

Аудіо # 3:
мова: англійська
переклад: оригінал
кодек: 5.1
бітрейт: 448 кб/с

Аудіо # 4:
мова: англійська
переклад: оригінал
кодек: -HD MA 5.1
бітрейт: 3633 кб/с

Субтитри: (Full)
мова: українська
тип: програмні (м'які)
формат: *.srt

Субтитри: (Full)
мова: англійська
тип: програмні (м'які)
формат: *.srt
Info
Код:

General
Complete name                            : Contagion (2011) Remux 1080p [UKR_ENG] [Video_Hurtom].
Format                                   :
Format version                           : Version 4
File size                                : 16.0 GiB
Duration                                 : 1 h 46 min
Overall bit rate mode                    : Variable
Overall bit rate                         : 21.5 Mb/s
Encoded date                             : UTC 2020-01-27 18:03:11
Writing application                      : v30.1.0 ('Forever And More') 64-bit
Writing library                          : libebml v1.3.6 + v1.4.9
Cover                                    : Yes
Attachments                              : cover.jpg

Video
ID                                       : 1
Format                                   : AVC
Format/Info                              : Advanced Video Codec
Format profile                           : [email protected]
Format settings                          : CABAC / 2 Ref Frames
Format settings, CABAC                   : Yes
Format settings, RefFrames               : 2 frames
Codec ID                                 : V_MPEG4/ISO/AVC
Duration                                 : 1 h 46 min
Bit rate mode                            : Variable
Bit rate                                 : 16.8 Mb/s
Width                                    : 1 920 pixels
Height                                   : 1 080 pixels
Display aspect ratio                     : 16:9
Frame rate mode                          : Constant
Frame rate                               : 23.976 (24000/1001) FPS
Color space                              : YUV
Chroma subsampling                       : 4:2:0
Bit depth                                : 8 bits
Scan type                                : Progressive
Bits/(Pixel*Frame)                       : 0.339
Stream size                              : 12.5 GiB (78%)
Title                                    : 16845 kbps
Language                                 : English
Default                                  : No
Forced                                   : No

Audio #1
ID                                       : 2
Format                                   : AC-3
Format/Info                              : Audio Coding 3
Commercial name                          : Dolby Digital
Codec ID                                 : A_AC3
Duration                                 : 1 h 46 min
Bit rate mode                            : Constant
Bit rate                                 : 384 kb/s
Channel(s)                               : 6 channels
Channel layout                           : L R C LFE Ls Rs
Sampling rate                            : 48.0 kHz
Frame rate                               : 31.250 FPS (1536 SPF)
Bit depth                                : 16 bits
Compression mode                         : Lossy
Stream size                              : 292 MiB (2%)
Title                                    : 5.1 | 384
Language                                 : Ukrainian
Service kind                             : Complete Main
Default                                  : Yes
Forced                                   : No

Audio #2
ID                                       : 3
Format                                   : AC-3
Format/Info                              : Audio Coding 3
Commercial name                          : Dolby Digital
Codec ID                                 : A_AC3
Duration                                 : 1 h 46 min
Bit rate mode                            : Constant
Bit rate                                 : 192 kb/s
Channel(s)                               : 2 channels
Channel layout                           : L R
Sampling rate                            : 48.0 kHz
Frame rate                               : 31.250 FPS (1536 SPF)
Bit depth                                : 16 bits
Compression mode                         : Lossy
Stream size                              : 146 MiB (1%)
Title                                    : 2.0 | 192
Language                                 : Ukrainian
Service kind                             : Complete Main
Default                                  : No
Forced                                   : No

Audio #3
ID                                       : 4
Format                                   : AC-3
Format/Info                              : Audio Coding 3
Commercial name                          : Dolby Digital
Codec ID                                 : A_AC3
Duration                                 : 1 h 46 min
Bit rate mode                            : Constant
Bit rate                                 : 448 kb/s
Channel(s)                               : 6 channels
Channel layout                           : L R C LFE Ls Rs
Sampling rate                            : 48.0 kHz
Frame rate                               : 31.250 FPS (1536 SPF)
Bit depth                                : 16 bits
Compression mode                         : Lossy
Stream size                              : 341 MiB (2%)
Title                                    : 5.1 | 448
Language                                 : English
Service kind                             : Complete Main
Default                                  : No
Forced                                   : No

Audio #4
ID                                       : 5
Format                                   : XLL
Format/Info                              : Digital Theater Systems
Commercial name                          : -HD Master Audio
Codec ID                                 : A_DTS
Duration                                 : 1 h 46 min
Bit rate mode                            : Variable
Bit rate                                 : 3 632 kb/s
Channel(s)                               : 6 channels
Channel layout                           : C L R Ls Rs LFE
Sampling rate                            : 48.0 kHz
Frame rate                               : 93.750 FPS (512 SPF)
Bit depth                                : 24 bits
Compression mode                         : Lossless
Stream size                              : 2.70 GiB (17%)
Title                                    : -HD MA 5.1 | 3633s
Language                                 : English
Default                                  : No
Forced                                   : No

Text #1
ID                                       : 6
Format                                   : UTF-8
Codec ID                                 : S_TEXT/UTF8
Codec ID/Info                            : UTF-8 Plain Text
Duration                                 : 1 h 45 min
Bit rate                                 : 114 b/s
Count of elements                        : 1292
Stream size                              : 88.5 KiB (0%)
Title                                    : Full
Language                                 : Ukrainian
Default                                  : No
Forced                                   : No

Text #2
ID                                       : 7
Format                                   : UTF-8
Codec ID                                 : S_TEXT/UTF8
Codec ID/Info                            : UTF-8 Plain Text
Duration                                 : 1 h 39 min
Bit rate                                 : 70 b/s
Count of elements                        : 1228
Stream size                              : 51.4 KiB (0%)
Title                                    : Full
Language                                 : English
Default                                  : No
Forced                                   : No

Menu
00:00:00.000                             : en:Chapter 1
00:04:33.356                             : en:Chapter 2
00:07:26.780                             : en:Chapter 3
00:11:08.960                             : en:Chapter 4
00:14:20.818                             : en:Chapter 5
00:16:01.043                             : en:Chapter 6
00:17:44.814                             : en:Chapter 7
00:20:15.464                             : en:Chapter 8
00:22:23.634                             : en:Chapter 9
00:24:11.909                             : en:Chapter 10
00:26:55.781                             : en:Chapter 11
00:30:31.997                             : en:Chapter 12
00:34:17.097                             : en:Chapter 13
00:36:35.026                             : en:Chapter 14
00:38:40.735                             : en:Chapter 15
00:41:28.236                             : en:Chapter 16
00:42:51.068                             : en:Chapter 17
00:46:55.146                             : en:Chapter 18
00:49:49.403                             : en:Chapter 19
00:52:00.951                             : en:Chapter 20
00:53:57.609                             : en:Chapter 21
00:57:30.364                             : en:Chapter 22
01:00:54.234                             : en:Chapter 23
01:03:22.716                             : en:Chapter 24
01:07:42.392                             : en:Chapter 25
01:10:21.259                             : en:Chapter 26
01:12:34.225                             : en:Chapter 27
01:15:35.322                             : en:Chapter 28
01:18:10.227                             : en:Chapter 29
01:22:34.032                             : en:Chapter 30
01:25:23.410                             : en:Chapter 31
01:31:28.358                             : en:Chapter 32
01:34:35.295                             : en:Chapter 33
01:36:10.556                             : en:Chapter 34
01:41:28.332                             : en:Chapter 35
Скріншоти


Джерело:
Особиста оцінка: 8 - мені сподобалося


Золотий реліз (завантажене не впливає на рейтинг)
 Трекер:    Зареєстрований   

Завантажити / скачати фільм українською



відео для новачків



 Зареєстрований:   2020-01-27 22:53
 Розмір:   15.99 GB 
 Оцінка фільму:   9.5/10 (Голосів: 48)
   
UAbomber 
Частий відвідувач


З нами з: 03.01.20
Востаннє: 02.07.20
Повідомлень: 25

2020-01-28 00:32  
Цікаво наскільки цей фільм схожий на ту ситуацію яка зараз відбувається у світі. І вірус, і кажани. Але цей фільм ніхто не форсить, бо він дуже слабкий та усі про нього забули.
Anonymous 







2020-01-28 00:33  
Про фільм писати треба , ситуації ні до чого

Все інше - це флуд і попередження. Happy

Pegass 
VIP


З нами з: 17.12.09
Востаннє: 18.09.20
Повідомлень: 1109

2020-01-28 03:42  
Anonymous
Інформація про дубляж. Аудіо 1.
https://toloka.to/t32247#439439

Anonymous 







2020-01-28 04:00  
Pegass Дякую!
taksist 
VIP


З нами з: 10.12.12
Востаннє: 19.09.20
Повідомлень: 407

2020-01-28 07:41  
хто підкаже назву фільма де зараження відбулося на автобусній станції?
pavelnb 
Новенький


З нами з: 09.02.18
Востаннє: 16.09.20
Повідомлень: 8

2020-01-29 22:38  
фильм предсказал будущее )))
neverlest 
Новенький


З нами з: 24.01.17
Востаннє: 15.09.20
Повідомлень: 18

2020-01-30 18:05  
Слідкував за фільмом із самого першого трейлеру. Ще тоді я знав, фільм дуже подібний до того, що може бути. Не схожий ні на один фільм із розділу "зомбі зомбі зомбі". Вірус так і працює, як показано у фільмі. Тихеньке, блискавичне, максимально ефективне винищення людства.
Ще багато фільмів з розділу "Вангівські", шось типу про глобальне потепління.

Anonymous 







2020-03-08 03:14  
pavelnb написано:
фильм предсказал будущее )))

там трохи інше

MakRA 
VIP


З нами з: 11.11.18
Востаннє: 19.09.20
Повідомлень: 1112

2020-03-18 13:03  
Саме час передивитися даний фільм. Сюжет специфічний )
mzl 
Свій


З нами з: 19.12.15
Востаннє: 01.09.20
Повідомлень: 90

2020-03-20 05:10  
хтось зрозумів, що говорить тато лікарки на 1.17.53?
igor911 
Модератор відео


З нами з: 18.01.08
Востаннє: 18.09.20
Повідомлень: 14994

2020-03-20 09:35  
mzl написано:
що говорить тато лікарки на 1.17.53?

"йому нобелівську дали"

Кіт Баюн 
Відео Гуртом - запис з ТБ
Відео Гуртом - запис з ТБ


З нами з: 02.12.08
Востаннє: 16.09.20
Повідомлень: 260

2020-03-20 12:31  
Ще був у 2006 році знятий схожий фільм, як що не помиляюсь..... назва - Смертельний контакт: Пташиний грип в Америці... Теж пів світу вмерло.....
STEVLTH 
Новенький


З нами з: 15.01.18
Востаннє: 17.09.20
Повідомлень: 7

2020-03-20 22:56  
Якось давно вже дивився його, не зачепив. А сьогодні, на тлі реальної пандемії, круто заходить! Ну дуже схоже на реальність... Ми в лайні Sad (1)
AlGor-1 
Новенький


З нами з: 14.02.11
Востаннє: 01.09.20
Повідомлень: 7

2020-03-20 23:01  
mzl написано:
хтось зрозумів, що говорить тато лікарки на 1.17.53?

"Йому Нобелівську дали, Теді Маршалу".

Hz0 
Частий відвідувач


З нами з: 12.05.12
Востаннє: 13.09.20
Повідомлень: 32

2020-03-22 01:15  
pavelnb
Carriers?

drek0rig 
Новенький


З нами з: 28.12.19
Востаннє: 18.09.20
Повідомлень: 6

2020-03-24 00:39  
Шкода не подивився це кіно раніше, тепер важко порівняти відчуття на фоні теперішньої ситуації, але фільм в будь якому разі хороший, правдоподібний апокаліпсис.
MakRA 
VIP


З нами з: 11.11.18
Востаннє: 19.09.20
Повідомлень: 1112

2020-03-24 00:43  
drek0rig
Вісім років тому назад мені він видався нудним і нецікавимHappy, на початку лютого це було зовсім інше кіно

O_omarella! 
Поважний учасник


З нами з: 14.06.13
Востаннє: 18.08.20
Повідомлень: 194

2020-04-20 19:01  
До сих пір не розумію як Стівен Содерберг міг знати....
Anonymous 







2020-07-14 11:02  
8 - мені сподобалося
Ваш часовий пояс: GMT + 2 Години

Нова тема   Відповісти