Здійнявся вітер / Вітер дужчає / Kaze Tachinu / The Wind Is Rising / 風立ちぬ (2013) Jap | sub Ukr

Нові коментарі

Нова тема   Відповісти
Автор Повідомлення
Anonymous 







2020-01-26 23:23  
Здійнявся вітер / Вітер дужчає / Kaze Tachinu / The Wind Is Rising / 風立ちぬ (2013) Jap | sub Ukr

Здійнявся вітер / Вітер дужчає / Kaze Tachinu / The Wind Is Rising / 風立ちぬ (2013) Jap | sub Ukr


Жанр: історична драма, романтика
Країна: Японія



8.60 (51 голосів)

Кінокомпанія: Studio Ghibli, Buena Vista Home Entertainment, Hakuhodo DY Media Partners
Режисер: Хаяо Міядзакі
Ролі озвучують: Джозеф Гордон- Левітт, Джон Красінскі, Емілі Блант, Мартін Шорт, Стенлі Туччі, Менді Петінкін, Мей Вітман, Вернер Херцог, Дженніфер Грей, Вільям Х. Мейсі

Сюжет:
Хлопчик Джіро мріє про польоти та красиві літаки, які здатні обігнати вітер. От тільки пілотом йому не стати - він з народження короткозорий. Але Джіро не полишає своєї мрії про небо, він починає придумувати ідеальний літак і з часом стає одним з кращих авіаконструкторів світу. На шляху до успіху він не тільки зустріне багато цікавих людей, переживе Великий землетрус в Токіо та жорстокі війни, а й знайде кохання свого життя - прекрасну Наоко.


Тривалість: 02:01:00
Якість:
Відео:
кодек: AVC
розмір кадру: 1280 х 692
бітрейт: ~4810 кб/с

Аудіо:
мова: японська
переклад: оригінал
кодек: 1.0 (Моно, такий задум авторів)
бітрейт: 768 кб/с

Субтитри:
мова: українська
тип: програмні (м'які)
формат: *.
переклад: (Субтитри набрані із запису озвучення, яке було в кіно)
Info


General
Unique ID : 195670544102638640008168243568255092922 (0x9334C6A8BBFCD8DBB923AC8BC2B6C8BA)
Complete name : E:\Anime\The Wind Rises 2013 720p..-CHD.
Format :
Format version : Version 2
File size : 4.93 GiB
Duration : 2 h 6 min
Overall bit rate : 5 581 kb/s
Movie name : Здійнявся вітер / Kaze Tachinu / The Wind Is Rising
Encoded date : UTC 2020-01-26 13:27:44
Writing application : v7.8.0 ('River Man') 32bit built on Apr 3 2015 12:11:22
Writing library : libebml v1.3.1 + v1.4.2

Video
ID : 1
Format : AVC
Format/Info : Advanced Video Codec
Format profile : [email protected]
Format settings, CABAC : Yes
Format settings, ReFrames : 9 frames
Codec ID : V_MPEG4/ISO/AVC
Duration : 2 h 6 min
Bit rate : 4 810 kb/s
Width : 1 280 pixels
Height : 692 pixels
Display aspect ratio : 1.85:1
Frame rate mode : Constant
Frame rate : 23.976 FPS
Color space : YUV
Chroma subsampling : 4:2:0
Bit depth : 8 bits
Scan type : Progressive
Bits/(Pixel*Frame) : 0.226
Stream size : 4.16 GiB (84%)
Title : CHD
Writing library : core 142 r2431 ac76440
Encoding settings : cabac=1 / ref=9 / deblock=1:-3:-3 / analyse=0x3:0x113 / me=umh / subme=10 / psy=1 / psy_rd=1.00:0.05 / mixed_ref=1 / me_range=32 / chroma_me=1 / trellis=2 / 8x8dct=1 / cqm=0 / deadzone=21,11 / fast_pskip=0 / chroma_qp_offset=-2 / threads=18 / lookahead_threads=1 / sliced_threads=0 / nr=0 / decimate=1 / interlaced=0 / bluray_compat=0 / constrained_intra=0 / bframes=6 / b_pyramid=2 / b_adapt=2 / b_bias=0 / direct=3 / weightb=1 / open_gop=0 / weightp=2 / keyint=250 / keyint_min=23 / scenecut=40 / intra_refresh=0 / rc=2pass / mbtree=0 / bitrate=4810 / ratetol=1.0 / qcomp=0.70 / qpmin=0 / qpmax=69 / qpstep=4 / cplxblur=20.0 / qblur=0.5 / ip_ratio=1.40 / pb_ratio=1.30 / aq=2:0.90
Language : Japanese
Default : Yes
Forced : No

Audio
ID : 2
Format :
Format/Info : Digital Theater Systems
Mode : 16
Format settings, Endianness : Big
Codec ID : A_DTS
Duration : 2 h 6 min
Bit rate mode : Constant
Bit rate : 768 kb/s
Channel(s) : 1 channel
Channel positions : Front: C
Sampling rate : 48.0 kHz
Frame rate : 93.750 FPS (512 spf)
Bit depth : 24 bits
Compression mode : Lossy
Stream size : 695 MiB (14%)
Title : Оригінал
Language : Japanese
Default : No
Forced : No

Text
ID : 3
Format :
Codec ID : S_TEXT/
Codec ID/Info : Advanced Sub Station Alpha
Compression mode : Lossless
Title : Українські субтитри
Language : Ukrainian
Default : Yes
Forced : Yes

Menu
00:00:00.000 : ja:00:00:00.000
00:07:09.220 : ja:00:07:09.220
00:12:52.689 : ja:00:12:52.689
00:21:53.979 : ja:00:21:53.979
00:30:06.471 : ja:00:30:06.471
00:37:49.434 : ja:00:37:49.434
00:44:57.528 : ja:00:44:57.528
00:52:59.635 : ja:00:52:59.635
01:00:33.755 : ja:01:00:33.755
01:08:06.290 : ja:01:08:06.290
01:17:12.920 : ja:01:17:12.920
01:28:44.027 : ja:01:28:44.027
01:35:20.548 : ja:01:35:20.548
01:46:39.059 : ja:01:46:39.059
01:52:45.884 : ja:01:52:45.884
02:02:56.744 : ja:02:02:56.744
Скріншоти









Особиста оцінка: 8


 Трекер:    Зареєстрований   

Завантажити / скачати аніме українською



відео для новачків



 Зареєстрований:   2020-01-26 23:24
 Розмір:   4.93 GB 
 Оцінка аніме:   9.7/10 (Голосів: 3)
   
Electroz 
Відео Гуртом - підтримка та поширення
Відео Гуртом - підтримка та поширення


З нами з: 18.09.14
Востаннє: 02.04.20
Повідомлень: 3804

2020-01-27 00:14  
Anonymous написано:

Джерело озвучення:
Субтитри набрані із запису озвучення, яке було в кіно.

Вкажіть в описі.

Aleks_Cat 
Частий відвідувач


З нами з: 14.04.14
Востаннє: 01.04.20
Повідомлень: 39

2020-01-27 09:15  
Хлопчик Дзіро - можна й Джіро казати, але це все ж видатна та відома особа
Anonymous 







2020-01-27 18:04  
Electroz написано:
Вкажіть в описі.

Є

leicheman 
Відео Гуртом - фільмокрай
Відео Гуртом - фільмокрай


З нами з: 03.07.14
Востаннє: 02.04.20
Повідомлень: 4564

2020-01-27 18:58  
Anonymous написано:
Моно, такий задум авторів


А в чому задум? Типу звук , як у давні часи ?

Anonymous 







2020-01-29 01:11  
leicheman
Мабуть. А ще всі звуки літаків зроблені людьми.

Ваш часовий пояс: GMT + 2 Години

Нова тема   Відповісти