Родина Адамсів / The Addams Family (2019) 1080p Ukr/Eng | Sub Eng

Нові коментарі

Нова тема   Відповісти
Автор Повідомлення
Anonymous 







2020-01-25 02:08  
Родина Адамсів / The Addams Family (2019) 1080p Ukr/Eng | Sub Eng

Родина Адамсів / The Addams Family (2019) 1080p Ukr/Eng | Sub Eng


Жанр: анімація, комедія, сімейний
Країна: США, Великобританія, Канада
Кінокомпанія: Metro-Goldwyn-Mayer (MGM), Cinesite Animation, BRON Studios
Режисер: Конрад Вернон, Ґреґ Тірнан
Актори: Оскар Айзек Шарліз Терон Хлоя Ґрейс Морец Фінн Вулфгард Нік Кролл Снуп Доґґ Бетт Мідлер

Сюжет:
У нове містечко переїхала вельми незвичайна сімейка. За всіма характеристиками вони відрізняються від середньостатистичних мам, тат і діточок. Цю сімейку звуть Аддамс. Вони найбільше цінують сіру та дощову погоду, у захваті від чорного кольору, а діти обожнюють грати з ризиком для життя. Усе це робить їх особливими та несхожими на інших. На жаль, інші люди поки не дуже раді новому дивному сусідству. Старша дочка сімейства на ім'я Венсдей повинна ходити до місцевої школи. Більшість дітей обходить її стороною, але одну подругу дівчинка все-таки собі знайшли. Вони мило спілкувалися та багато чому навчили один одного, а ось їхні батьки не в захваті від такого спілкування... Ви точно не зустрінете більше цікавих сусідів, ніж сімейка Адамсів!

Тривалість: 01:27:01
Якість:

Відео:
кодек:
розмір кадру: 1920 x 1036
бітрейт: 13 544 кб/с

Аудіо # 1:
мова: українська
переклад: багатоголосий закадровий
кодек: AC-3 5.1
бітрейт: 384 кб/с

Аудіо # 2:
мова: англійська
переклад: оригінал
кодек: 5.1
бітрейт: 1510 кб/с

Субтитри # 1: (Forced)
мова: українська
тип: програмні (м'які)
формат: *.srt

Субтитри # 2-3: (Full, SDH)
мова: англійська
тип: програмні (м'які)
формат: *.srt


Info
Код:
General
Unique ID                                : 93885000133394710741999556765631077665 (0x46A197E3120A8594912A7420627B5D21)
Complete name                            : The Addams Family (2019) 1080p [UKR_ENG] [Hurtom].
Format                                   :
Format version                           : Version 4
File size                                : 9.38 GiB
Duration                                 : 1 h 27 min
Overall bit rate                         : 15.4 Mb/s
Movie name                               : Родина Адамсів / The Addams Family (2019)
Encoded date                             : UTC 2020-02-27 22:29:46
Writing application                      : v20.0.0 ('I Am The Sun') 64-bit
Writing library                          : libebml v1.3.5 + v1.4.8
Cover                                    : Yes
Attachments                              : Cover.jpg

Video
ID                                       : 1
Format                                   : AVC
Format/Info                              : Advanced Video Codec
Format profile                           : [email protected]
Format settings                          : CABAC / 4 Ref Frames
Format settings, CABAC                   : Yes
Format settings, Reference frames        : 4 frames
Codec ID                                 : V_MPEG4/ISO/AVC
Duration                                 : 1 h 27 min
Bit rate                                 : 13.5 Mb/s
Width                                    : 1 920 pixels
Height                                   : 1 036 pixels
Display aspect ratio                     : 1.85:1
Frame rate mode                          : Constant
Frame rate                               : 23.976 (24000/1001) FPS
Color space                              : YUV
Chroma subsampling                       : 4:2:0
Bit depth                                : 8 bits
Scan type                                : Progressive
Bits/(Pixel*Frame)                       : 0.284
Stream size                              : 8.23 GiB (88%)
Title                                    : Родина Адамсів / The Addams Family (2019)
Writing library                          : core 159 r2991+49 ~ Encoded by Mocunaman in Portugal
Encoding settings                        : cabac=1 / ref=4 / deblock=1:-3:-3 / analyse=0x3:0x113 / me=umh / subme=10 / psy=1 / fade_compensate=0.00 / psy_rd=1.00:0.00 / mixed_ref=1 / me_range=32 / chroma_me=1 / trellis=2 / 8x8dct=1 / cqm=0 / deadzone=21,11 / fast_pskip=0 / chroma_qp_offset=-2 / threads=32 / lookahead_threads=5 / sliced_threads=0 / nr=0 / decimate=0 / interlaced=0 / bluray_compat=0 / constrained_intra=0 / fgo=0 / bframes=8 / b_pyramid=2 / b_adapt=2 / b_bias=0 / direct=3 / weightb=1 / open_gop=0 / weightp=2 / keyint=250 / keyint_min=23 / scenecut=40 / intra_refresh=0 / rc_lookahead=60 / rc=crf / mbtree=0 / crf=15.0000 / qcomp=0.60 / qpmin=0:0:0 / qpmax=69:69:69 / qpstep=4 / vbv_maxrate=62500 / vbv_bufsize=78125 / crf_max=0.0 / nal_hrd=none / filler=0 / ip_ratio=1.30 / pb_ratio=1.20 / aq=3:0.85 / aq-sensitivity=10.00 / aq-factor=1.00:1.00:1.00 / aq2=0 / aq3=0
Language                                 : English
Default                                  : Yes
Forced                                   : No
Color range                              : Limited
Color primaries                          : BT.709
Transfer characteristics                 : BT.709
Matrix coefficients                      : BT.709

Audio #1
ID                                       : 2
Format                                   : AC-3
Format/Info                              : Audio Coding 3
Commercial name                          : Dolby Digital
Codec ID                                 : A_AC3
Duration                                 : 1 h 27 min
Bit rate mode                            : Constant
Bit rate                                 : 384 kb/s
Channel(s)                               : 6 channels
Channel layout                           : L R C LFE Ls Rs
Sampling rate                            : 48.0 kHz
Frame rate                               : 31.250 FPS (1536 SPF)
Compression mode                         : Lossy
Stream size                              : 239 MiB (2%)
Title                                    : / 5.1 Ch / 384 kbps / БЗ / iTunes
Language                                 : Ukrainian
Service kind                             : Complete Main
Default                                  : Yes
Forced                                   : Yes

Audio #2
ID                                       : 3
Format                                   :
Format/Info                              : Digital Theater Systems
Codec ID                                 : A_DTS
Duration                                 : 1 h 27 min
Bit rate mode                            : Constant
Bit rate                                 : 1 509 kb/s
Channel(s)                               : 6 channels
Channel layout                           : C L R Ls Rs LFE
Sampling rate                            : 48.0 kHz
Frame rate                               : 93.750 FPS (512 SPF)
Bit depth                                : 24 bits
Compression mode                         : Lossy
Stream size                              : 939 MiB (10%)
Title                                    : / 5.1 Ch / 1509 kbps / Original
Language                                 : English
Default                                  : No
Forced                                   : No

Text #1
ID                                       : 4
Format                                   : UTF-8
Codec ID                                 : S_TEXT/UTF8
Codec ID/Info                            : UTF-8 Plain Text
Duration                                 : 1 h 19 min
Bit rate                                 : 1 b/s
Count of elements                        : 25
Stream size                              : 775 Bytes (0%)
Title                                    : Forced
Language                                 : Ukrainian
Default                                  : Yes
Forced                                   : Yes

Text #2
ID                                       : 5
Format                                   : UTF-8
Codec ID                                 : S_TEXT/UTF8
Codec ID/Info                            : UTF-8 Plain Text
Duration                                 : 1 h 25 min
Bit rate                                 : 69 b/s
Count of elements                        : 1436
Stream size                              : 43.3 KiB (0%)
Title                                    : Full
Language                                 : English
Default                                  : No
Forced                                   : No

Text #3
ID                                       : 6
Format                                   : UTF-8
Codec ID                                 : S_TEXT/UTF8
Codec ID/Info                            : UTF-8 Plain Text
Duration                                 : 1 h 25 min
Bit rate                                 : 71 b/s
Count of elements                        : 1406
Stream size                              : 45.2 KiB (0%)
Title                                    : SDH
Language                                 : English
Default                                  : No
Forced                                   : No

Menu
00:00:00.000                             : en:Chapter 01
00:05:08.558                             : en:Chapter 02
00:10:35.468                             : en:Chapter 03
00:15:46.946                             : en:Chapter 04
00:19:35.257                             : en:Chapter 05
00:25:14.805                             : en:Chapter 06
00:29:25.764                             : en:Chapter 07
00:34:20.558                             : en:Chapter 08
00:39:46.968                             : en:Chapter 09
00:45:01.741                             : en:Chapter 10
00:49:07.611                             : en:Chapter 11
00:53:40.926                             : en:Chapter 12
00:56:36.560                             : en:Chapter 13
01:00:01.014                             : en:Chapter 14
01:03:45.947                             : en:Chapter 15
01:06:02.458                             : en:Chapter 16
01:10:54.584                             : en:Chapter 17
01:18:09.476                             : en:Chapter 18
01:20:21.316                             : en:Chapter 19
01:21:11.325                             : en:Chapter 20
Світлини




Джерело: &
Особиста оцінка: 0 - не дивився


 Трекер:    Зареєстрований   

Завантажити / скачати мультфільм українською



відео для новачків



 Зареєстрований:   2020-02-28 00:46
 Розмір:   9.38 GB 
 Оцінка мультфільму:   9.2/10 (Голосів: 20)
   
Інші релізи
bot 
робот


З нами з: 30.09.07
Востаннє: 26.05.05
Повідомлень: 27340

2020-02-17 10:17  
Тему перенесено з Анонси релізів до форуму Мультфільми в HD


-Star-Lord-

Alex Zab4ik 
Новенький


З нами з: 23.12.19
Востаннє: 02.03.21
Повідомлень: 21

2020-04-05 22:54  
Фільм не зайшовCry (2)
На 4/10

Ваш часовий пояс: GMT + 2 Години

Нова тема   Відповісти