Секретні катастрофи - Загублений світ (Сезон 3, серія 51) (2019) ()

Нові коментарі

Нова тема   Відповісти
Останній раз роздавалося alexhap (2020-09-22)
Автор Повідомлення
killer2015 
Поважний учасник


З нами з: 30.01.15
Востаннє: 02.12.20
Повідомлень: 200

2020-01-24 20:27  
Секретні катастрофи - Загублений світ. (Сезон 3, серія 51) (2019) ()

Секретні катастрофи - Загублений світ (Сезон 3, серія 51) (2019) ()


Жанр: документальне
Країна: Україна

Телеканал / кіностудія: 2+2
Ведучий: Максим Сухенко, Геннадій Попенко та Валерій Сараула
Сюжет:
У 1982 році на станції московського метрополітену сталася жахлива катастрофа, яку згодом назвали кривавою м'ясорубкою. У годину пік один з ескалаторів раптово прискорився, як результат у його підніжжя утворився завал з декількох десятків збитих з ніг людей. Пасажири, які виявилися знизу були розчавлені і загинули на місці. Ще кілька десятків отримали важкі поранення. Однак КДБ суворо засекретив цей інцидент. У цьому випуску ми розповімо вам про катастрофи, які намагаються приховати від нас спецслужби.


Тривалість: 00:50:06
Якість:
Відео:
кодек:
розмір кадру: 1280 х 720
бітрейт: 4 098 кб/с

Аудіо:
мова: українська
переклад: оригінал
кодек: MP3
бітрейт: 128 кб/с
МедіаІнфо
General
Complete name : G:\Фільми\Секретні катастрофи – Загублений світ..avi
Format : AVI
Format/Info : Audio Video Interleave
Format profile : OpenDML
File size : 1.48 GiB
Duration : 50 min 6 s
Overall bit rate : 4 240 kb/s
Writing application : Lavf58.29.100

Video
ID : 0
Format :
Codec ID :
Duration : 50 min 6 s
Bit rate : 4 098 kb/s
Width : 1 280 pixels
Height : 720 pixels
Display aspect ratio : 16:9
Frame rate : 25.000 FPS
Scan type : Progressive
Bits/(Pixel*Frame) : 0.178
Stream size : 1.43 GiB (97%)

Audio
ID : 1
Format : MPEG Audio
Format version : Version 1
Format profile : Layer 3
Format settings : Joint stereo / MS Stereo
Codec ID : 55
Codec ID/Hint : MP3
Duration : 50 min 6 s
Bit rate mode : Constant
Bit rate : 128 kb/s
Channel(s) : 2 channels
Sampling rate : 44.1 kHz
Compression mode : Lossy
Stream size : 45.9 MiB (3%)
Alignment : Aligned on interleaves
Interleave, duration : 26 ms (0.65 video frame)
Interleave, preload duration : 26 ms
Writing library : LAME3.99.5
Скріншоти




Джерело:


 Трекер:    Зареєстрований   

Завантажити / скачати передачу українською



відео для новачків



 Зареєстрований:   2020-01-24 20:27
 Розмір:   1.48 GB 
 Оцінка передачі:   5.5/10 (Голосів: 2)
   
igor911 
Модератор відео


З нами з: 18.01.08
Востаннє: 03.12.20
Повідомлень: 15085

2020-01-24 21:56  
killer2015 написано:
Секретні катастрофи - Загублений світ. (2019) ()

Схоже, це одна серія з серіалу "Загублений світ" https://1plus1.video/zateryannyj-mir
На ютубі підписаний як "Секретні катастрофи – Загублений світ. 3 сезон. 51 випуск":

https://www.youtube.com/watch?v=Yr8xzvVrFik

тому треба змінити назву на "Секретні катастрофи. Загублений світ (Сезон 3, серія 51) (2019) "
Також бажано було б додати в опис всі катастрофи, про які йдеться в серії.
кому цікава тема: посилання на всі випуски на ютубі:

bot 
робот


З нами з: 30.09.07
Востаннє: 26.05.05
Повідомлень: 26444

2020-01-24 22:18  
killer2015 
Поважний учасник


З нами з: 30.01.15
Востаннє: 02.12.20
Повідомлень: 200

2020-01-25 10:48  
Опис катастроф додам відразу після перегляду.
Ваш часовий пояс: GMT + 2 Години

Нова тема   Відповісти