Вакфу (Сезон 1, Серії 1-3) / Wakfu (Season 1, Episodes 1-3) (2008) 1080p Ukr/Fre

Нові коментарі

Нова тема   Відповісти
Останній раз роздавалося ratibot (2020-11-08)
Автор Повідомлення
Цікава ідея 
VIP


З нами з: 26.12.11
Востаннє: 19.04.21
Повідомлень: 862

2020-01-24 21:06  
Вакфу (Сезон 1, Серії 1-3) / Wakfu (Season 1, Episodes 1-3) (2008) 1080p Ukr/Fre


Вакфу (Сезон 1, Серії 1-3) / Wakfu (Season 1, Episodes 1-3) (2008) 1080p Ukr/Fre


Жанр: пригоди, фентезі
Країна: Франція



Кінокомпанія / телеканал: Ankama, France 3
Режисер: Антоні Ру
Актори: Фанні Блок, Женів'єв Доан, Росс Ґрант та ін.

Сюжет:
Історія про маленького хлопчика Юґо, якому судилося врятувати світ від жахливої катастрофи в майбутньому. Його залишив неподалік від селища старий, який дивним чином вийшов із туману з візочком, а знайшов колишній мисливець за головами Аліберт, який отримав дивне послання з проханням виховувати хлопчину, поки його сила не проявить себе, а потім відпустити у подорож.


Тривалість: 1 серія: ~ 22 хв. (цілком серій: 3/26)
Перелік серій:

Епізод 1 - Дитя з туману
Епізод 2 - Юґо Еліатроп
Епізод 3 - Чорний ворон
Якість: 1080p
Відео:
кодек:
розмір кадру: 1920 x 1080
бітрейт: 5 045 кб/с

Аудіо # 1:
мова: українська
озвучення: багатоголосий закадровий | "Цікава Ідея"
кодек: 2.0
бітрейт: 192 кб/с

Аудіо # 2:
мова: французька
переклад: оригінал
кодек: 5.1
бітрейт: 1509 кб/с
Info
Код:
Format                      :
Format version              : Version 4
File size                   : 1.19 GiB
Duration                    : 22 min 38 s
Overall bit rate            : 7 529 kb/s
Movie name                  : Вакфу / Wakfu - S01E01 (2008) 1080p [Ukr.Fre] [Цікава Ідея]
Encoded date                : UTC 2020-01-24 17:40:46
Writing application         : v6.8.0 ('Theme for Great Cities') 32bit built on Mar  2 2014 21:27:07
Writing library             : libebml v1.3.0 + v1.4.1
Cover                       : Yes
Attachments                 : cover.jpg

Video
ID                          : 1
Format                      : AVC
Format/Info                 : Advanced Video Codec
Format profile              : [email protected]
Format settings             : CABAC / 4 Ref Frames
Format settings, CABAC      : Yes
Format settings, Reference  : 4 frames
Codec ID                    : V_MPEG4/ISO/AVC
Duration                    : 22 min 38 s
Bit rate                    : 5 678 kb/s
Width                       : 1 920 pixels
Height                      : 1 080 pixels
Display aspect ratio        : 16:9
Frame rate mode             : Constant
Frame rate                  : 25.000 FPS
Color space                 : YUV
Chroma subsampling          : 4:2:0
Bit depth                   : 8 bits
Scan type                   : Progressive
Bits/(Pixel*Frame)          : 0.110
Stream size                 : 919 MiB (75%)
Title                       : Localization
Writing library             : core 146 r2538 121396c
Encoding settings           : cabac=1 / ref=4 / deblock=1:-3:-3 / analyse=0x3:0x133 / me=tesa / subme=10 / psy=1 / psy_rd=1.00:0.00 / mixed_ref=1 / me_range=16 / chroma_me=1 / trellis=2 / 8x8dct=1 / cqm=0 / deadzone=21,11 / fast_pskip=0 / chroma_qp_offset=-2 / threads=12 / lookahead_threads=2 / sliced_threads=0 / nr=0 / decimate=0 / interlaced=0 / bluray_compat=0 / constrained_intra=0 / bframes=9 / b_pyramid=2 / b_adapt=2 / b_bias=0 / direct=3 / weightb=1 / open_gop=0 / weightp=2 / keyint=240 / keyint_min=23 / scenecut=40 / intra_refresh=0 / rc_lookahead=240 / rc=crf / mbtree=1 / crf=15.0 / qcomp=0.70 / qpmin=0 / qpmax=69 / qpstep=4 / ip_ratio=1.40 / aq=1:0.65
Language                    : English
Default                     : Yes
Forced                      : No

Audio #1
ID                          : 2
Format                      : AC-3
Format/Info                 : Audio Coding 3
Commercial name             : Dolby Digital
Codec ID                    : A_AC3
Duration                    : 22 min 38 s
Bit rate mode               : Constant
Bit rate                    : 192 kb/s
Channel(s)                  : 2 channels
Channel layout              : L R
Sampling rate               : 48.0 kHz
Frame rate                  : 31.250 FPS (1536 SPF)
Bit depth                   : 16 bits
Compression mode            : Lossy
Stream size                 : 31.1 MiB (3%)
Title                       : Українська
Language                    : Ukrainian
Service kind                : Complete Main
Default                     : Yes
Forced                      : No

Audio #2
ID                          : 3
Format                      :
Format/Info                 : Digital Theater Systems
Codec ID                    : A_DTS
Duration                    : 22 min 38 s
Bit rate mode               : Constant
Bit rate                    : 1 509 kb/s
Channel(s)                  : 6 channels
Channel layout              : C L R Ls Rs LFE
Sampling rate               : 48.0 kHz
Frame rate                  : 93.750 FPS (512 SPF)
Bit depth                   : 24 bits
Compression mode            : Lossy
Stream size                 : 244 MiB (20%)
Title                       : Original
Language                    : French
Default                     : No
Forced                      : No
Скріншоти



Озвучено творчим об'єднанням:
Ролі озвучили: Роман Чупіс, Юлія Малахова, Влад Ковалевський, Катерина Свиреденко, Олексій Сафін, Олена Пузанкова та Андрій Павловський.


Авторський реліз (завантажувати можна без реєстрації)
 Трекер:    Зареєстрований   

Завантажити / скачати мультфільм українською



відео для новачків



 Зареєстрований:   2020-01-24 21:06
 Розмір:   3.57 GB 
 Оцінка мультсеріалу:   7.4/10 (Голосів: 8)
   
bgnt 
Свій


З нами з: 04.05.17
Востаннє: 20.04.21
Повідомлень: 132

2020-01-25 11:45  
Додайте інформацію хто озвучував ролі, як у реалізах до "Новий папа" і "Чому жінки вбивають"
AnubiS 
VIP


З нами з: 10.05.09
Востаннє: 19.04.21
Повідомлень: 415

2020-01-27 07:57  
Дякую! )
Ваш часовий пояс: GMT + 2 Години

Нова тема   Відповісти