Історія лицаря / A Knight's Tale (2001) 1080p [Open Matte] 3xUkr/Eng | Sub Eng

Нові коментарі

Нова тема   Відповісти
Автор Повідомлення
MakRA 
VIP


З нами з: 10.11.18
Востаннє: 29.02.20
Повідомлень: 827

2020-01-24 12:43  
Історія лицаря / A Knight's Tale (2001) 1080p [Open Matte] 3xUkr/Eng | Sub Eng


Альтернативні постери та обкладинки:







Жанр: пригодницький, романтичний, комедія
Країна: США



Кінокомпанія: Columbia Pictures Corporation
Режисер: Брайан Гелгеленд [Brian Helgeland]
Актори: Гіт Леджер (Heath Ledger), Руфус С'юелл [Rufus Sewell], Шаннін Соссамон [Shannyn Sossamon], Пол Беттані [Пол Беттані (Paul Bettany)], Лаура Фрайзер [Laura Fraser], Марк Едді [Mark Addy], Алан Т'юдік [Alan Tudyk], Береніс Бежо [Bérénice Bejo], Скотт Генді [Scott Handy], Джеймс П'юрфой [James Purefoy]

Сюжет:
Легкий, простий, симпатичний та не позбавлений сенсу і моралі комедійний бойовик про середньовічного лицаря.
Події розгортаються у середньовічні часи. Головний герой – молодий Вільям Тетчер. Він зброєносець поважного лицаря сера Ектора, на службу до якого Вільям поступив ще маленьким хлопчиком. Через своє низьке походження, Тетчер не має права брати участь у лицарських змаганнях, але через раптову смерть свого господаря, хлопчина наважується взяти його обладунок та випробувати долю…

Цікаве про фільм та зйомки:

-Спочатку стрічка мала носити назву «У блиску латів»;
-Зйомки проходили в Празі;
-Під час зйомок Полу Бетані так часто доведилося напружувати голос і кричати, що актор зрештою «заробив» собі ларингіт (запалення гортані);
-Оскільки в стрічці згадується Битва при Пуатьє, можна визначити точний час подій — 1356 р., одначе суцільні лати з'явилися значно пізніше — приблизно через 60 років;
-Лицар Ульріх фон Ліхтенштейн — реальна людина, але з дещо іншою біографією.


Тривалість: 02:12:23
Якість: 1080p Open Matte [Amazon]- має більше наповнення кадру в порівнянні з блуреєм
Відео:
кодек:
розмір кадру: 1920 х 1080
бітрейт: 10 Mб/с
примітка: при перегляді виявив, що по боках у деяких кадрах картинка трохи обрізана (зліва або справа), також в кадрі іноді присутній логотип "Starz"

Аудіо # 1:
мова: українська
переклад: багатоголосий закадровий
кодек: 2.0
бітрейт: 192 кб/с

Аудіо # 2:
мова: українська
переклад: багатоголосий закадровий
кодек: 2.0 (з 5.1)
бітрейт: 192 кб/с
назву перекладено як: "Історія рицаря"

Аудіо # 3:
мова: українська
переклад: багатоголосий закадровий
кодек: 2.0
бітрейт: 192 кб/с
примітка: з 24:00 присутня п'ятихвилинна латка з Нового

Аудіо # 4:
мова: англійська
переклад: оригінал | BluRay CEE
кодек: 5.1
бітрейт: 1510 кб/с

Аудіо # 5:
мова: англійська
переклад: оригінал | Amazon
кодек: E- 5.1
бітрейт: 192 кб/с

Аудіо # 6:
мова: англійська
переклад: оригінал
кодек: 2.0
бітрейт: 192 кб/с

Субтитри # 1: (Full) | BluRay
мова: англійська
тип: програмні (м'які)
формат: *.srt

Субтитри # 2: (SDH) | Amazon
мова: англійська
тип: програмні (м'які)
формат: *.srt

Збережено оригінальні розділи, як на Blu-ray.
Info
General
Unique ID : 290566017659756917240918133459331819839 (0xDA98FABB7B0B956E84312B0A98BFA93F)
Complete name : F:\+ Open Matte Movie Collection\A Knight's Tale (2001) 1080p [Open Matte] 3xUkrEng Sub Eng [Hurtom].
Format :
Format version : Version 4
File size : 11.4 GiB
Duration : 2 h 12 min
Overall bit rate : 12.3 Mb/s
Movie name : Історія лицаря / A Knight's Tale (2001) 1080p [Open Matte] 3xUkr/Eng | Sub Eng [Hurtom]
Encoded date : UTC 2020-01-24 08:12:15
Writing application : v25.0.0 ('Prog Noir') 64-bit
Writing library : libebml v1.3.6 + v1.4.9
Cover : Yes
Attachments : cover.jpg

Video
ID : 1
Format : AVC
Format/Info : Advanced Video Codec
Format profile : [email protected]
Format settings : CABAC / 4 Ref Frames
Format settings, CABAC : Yes
Format settings, Reference fra : 4 frames
Codec ID : V_MPEG4/ISO/AVC
Duration : 2 h 12 min
Bit rate mode : Constant
Bit rate : 10 000 kb/s
Width : 1 920 pixels
Height : 1 080 pixels
Display aspect ratio : 16:9
Frame rate mode : Constant
Frame rate : 23.976 (24000/1001) FPS
Color space : YUV
Chroma subsampling : 4:2:0
Bit depth : 8 bits
Scan type : Progressive
Bits/(Pixel*Frame) : 0.201
Stream size : 9.08 GiB (80%)
Title : A Knight's Tale (2001) 1080p [Open Matte] 3xUkr/Eng | Sub Eng [Hurtom]
Language : Ukrainian
Default : Yes
Forced : Yes
Color range : Limited
Color primaries : BT.709
Transfer characteristics : BT.709
Matrix coefficients : BT.709

Audio #1
ID : 2
Format : AC-3
Format/Info : Audio Coding 3
Commercial name : Dolby Digital
Codec ID : A_AC3
Duration : 2 h 12 min
Bit rate mode : Constant
Bit rate : 192 kb/s
Channel(s) : 2 channels
Channel layout : L R
Sampling rate : 48.0 kHz
Frame rate : 31.250 FPS (1536 SPF)
Bit depth : 16 bits
Compression mode : Lossy
Stream size : 182 MiB (2%)
Title : MVO [НОВИЙ] 2.0
Language : Ukrainian
Service kind : Complete Main
Default : No
Forced : No

Audio #2
ID : 3
Format : AC-3
Format/Info : Audio Coding 3
Commercial name : Dolby Digital
Codec ID : A_AC3
Duration : 2 h 12 min
Bit rate mode : Constant
Bit rate : 192 kb/s
Channel(s) : 2 channels
Channel layout : L R
Sampling rate : 48.0 kHz
Frame rate : 31.250 FPS (1536 SPF)
Bit depth : 16 bits
Compression mode : Lossy
Delay relative to video : 10 s 500 ms
Stream size : 181 MiB (2%)
Title : MVO [K1] 2.0
Language : Ukrainian
Service kind : Complete Main
Default : No
Forced : No

Audio #3
ID : 4
Format : AC-3
Format/Info : Audio Coding 3
Commercial name : Dolby Digital
Codec ID : A_AC3
Duration : 2 h 12 min
Bit rate mode : Constant
Bit rate : 192 kb/s
Channel(s) : 2 channels
Channel layout : L R
Sampling rate : 48.0 kHz
Frame rate : 31.250 FPS (1536 SPF)
Bit depth : 16 bits
Compression mode : Lossy
Stream size : 182 MiB (2%)
Title : MVO [ICTV] 2.0
Language : Ukrainian
Service kind : Complete Main
Default : No
Forced : No

Audio #4
ID : 5
Format :
Format/Info : Digital Theater Systems
Codec ID : A_DTS
Duration : 2 h 12 min
Bit rate mode : Constant
Bit rate : 1 510 kb/s
Channel(s) : 6 channels
Channel layout : C L R Ls Rs LFE
Sampling rate : 48.0 kHz
Frame rate : 93.750 FPS (512 SPF)
Bit depth : 24 bits
Compression mode : Lossy
Stream size : 1.39 GiB (12%)
Title : Original 5.1 | BluRay CEE
Language : English
Default : No
Forced : No

Audio #5
ID : 6
Format : E-AC-3
Format/Info : Enhanced AC-3
Commercial name : Dolby Digital Plus
Codec ID : A_EAC3
Duration : 2 h 12 min
Bit rate mode : Constant
Bit rate : 192 kb/s
Channel(s) : 6 channels
Channel layout : L R C LFE Ls Rs
Sampling rate : 48.0 kHz
Frame rate : 31.250 FPS (1536 SPF)
Compression mode : Lossy
Stream size : 182 MiB (2%)
Title : Original E- 5.1 | Amazon
Language : English
Service kind : Complete Main
Default : No
Forced : No

Audio #6
ID : 7
Format : AC-3
Format/Info : Audio Coding 3
Commercial name : Dolby Digital
Codec ID : A_AC3
Duration : 2 h 12 min
Bit rate mode : Constant
Bit rate : 192 kb/s
Channel(s) : 2 channels
Channel layout : L R
Sampling rate : 48.0 kHz
Frame rate : 31.250 FPS (1536 SPF)
Bit depth : 16 bits
Compression mode : Lossy
Stream size : 181 MiB (2%)
Title : Original 2.0
Language : English
Service kind : Complete Main
Default : No
Forced : No

Text #1
ID : 8
Format : UTF-8
Codec ID : S_TEXT/UTF8
Codec ID/Info : UTF-8 Plain Text
Duration : 2 h 11 min
Bit rate : 39 b/s
Count of elements : 1211
Stream size : 38.1 KiB (0%)
Title : Eng (Full) | BluRay
Language : English
Default : No
Forced : No

Text #2
ID : 9
Format : UTF-8
Codec ID : S_TEXT/UTF8
Codec ID/Info : UTF-8 Plain Text
Duration : 2 h 11 min
Bit rate : 54 b/s
Count of elements : 1938
Stream size : 52.6 KiB (0%)
Title : Eng (SDH) | Amazon
Language : English
Default : No
Forced : No

Menu
00:00:00.000 : en:Start
00:06:04.080 : en:Sir Ector Rides Again
00:11:29.640 : en:"Low Rider"
00:13:50.800 : en:Chaucer the Trudger
00:19:34.840 : en:Foxy Lady
00:23:01.720 : en:Master of 1000 Lances
00:24:23.520 : en:A Gambling Problem
00:26:18.280 : en:Sword on Foot
00:28:03.400 : en:"Takin' Care of Business"
00:29:42.040 : en:Kate the Smithee
00:30:54.000 : en:Count Adhemar
00:34:21.240 : en:Hark! The Herald Sings
00:37:36.120 : en:Ulric vs. Colville
00:42:23.920 : en:Adhemar vs. Ulric
00:51:11.400 : en:Dance Lesson
00:54:25.880 : en:"Golden Years"
01:02:04.720 : en:A Draw
01:07:02.080 : en:"My Dearest Jocelyn"
01:13:37.960 : en:"I Will Not Lose!"
01:17:12.600 : en:Proving His Love
01:23:38.600 : en:Ulric's Prize
01:25:58.560 : en:12 Years Earlier
01:35:57.560 : en:Word of His Son
01:39:47.480 : en:Pride & the Passion
01:45:03.360 : en:Under Arrest
01:46:33.760 : en:Sir William
01:52:38.400 : en:"He's Tipped It!"
01:59:17.080 : en:Weighed, Measured & Wanting
Скріншоти
Джерело: &
За запис з ICTV дякую п. Bohdan237
За доріжки від Нового та К1 дякую п. MAKAPOHHIK та п. BASTERD-94
Синхронізація звуку п. Arsenfpu , український постер від п.Воїн'а.
Особиста оцінка: 10 - без зайвих вагань рекомендую всім!


Срібний реліз (на рейтинг впливає 50% завантаженого)
 Трекер:    Зареєстрований   

Завантажити / скачати фільм українською



відео для новачків



 Зареєстрований:   2020-01-24 12:43
 Розмір:   11.36 GB 
 Оцінка фільму:   9.8/10 (Голосів: 5)
   
Ваш часовий пояс: GMT + 2 Години

Нова тема   Відповісти