Доктор Сон [Театральна версія] / Doctor Sleep [Theatrical cut] (2019) UHD 4K 2160p HDR H.265 Ukr/Eng | Sub Eng

Нові коментарі

Нова тема   Відповісти
Автор Повідомлення
Anonymous 







2020-01-24 11:54  
Доктор Сон [Театральна версія] / Doctor Sleep [Theatrical cut] (2019) UHD 4K 2160p HDR H.265 Ukr/Eng | Sub Eng

Доктор Сон [Театральна версія] / Doctor Sleep [Theatrical cut] (2019) UHD 4K 2160p HDR H.265 Ukr/Eng | Sub Eng


Жанр: трилер, жахи
Країна: США, Велика Британія



Кінокомпанія: Warner Bros. Pictures, Intrepid Pictures, Vertigo Entertainment
Режисер: Майк Фленеґан
Актори: Юен Макгрегор, Ребекка Фергюсон (II), Денні Ллойд, Карел Стрейкен, Джейкоб Трамбле, Емілі Елін Лінд, Зан Маккларнон, Кліфф Кертіс, Брюс Грінвуд, Олександра Ессо, Кайлі Каррен, Карл Ламблі, Закарі Момо

Сюжет:
Після подій сорокарічної давності, коли в готелі "Оверлук" Денні Торранс пережив жахливі події, став свідком незрозумілого та втратив батька, довго відходив. Усе, що там відбувалося, до цих пір переслідує вже дорослого чоловіка. Його тоді дитяча психіка отримала серйозний удар, від якого складно було відійти. Допомагає йому в цьому, на жаль, алкоголь. Він уже звик до життя відлюдника, налагоджує мало зв'язків. Але настав день, коли з ним зв'язалася така ж, як і він, дівчинка на ім'я Абра. Хтось це назвав би ясновидінням, але Денні це кличе по-іншому – "сяйво". Їй потрібна допомога, адже за нею полюють члени "Істинного вузла", вони вбивають і пожирають "людей із сяйвом". Для боротьби з ними Денні повинен повернутися в найжахливіше для нього місце...


Тривалість: 02:32:01
Якість: UHD 4K 2160p
Відео:
кодек: H.265 (HEVC)
розмір кадру: 3840x2076
бітрейт: 21300 кб/с
бітова глибина: 10 біт
кольоровий простір: BT.2020 (HDR)

Аудіо # 1:
мова: українська
переклад: професійний дубльований
кодек: 5.1
бітрейт: 384 кб/с

Аудіо # 2:
мова: українська
переклад: професійний дубльований
кодек: 2.0
бітрейт: 192 кб/с

Аудіо # 3:
мова: англійська
переклад: оригінал
кодек: 5.1
бітрейт: 640 кб/с

Субтитри # 1 (Forced):
мова: українська
тип: програмні (м'які)
формат: *.srt

Субтитри # 2-3 (Full, SDH):
мова: англійська
тип: програмні (м'які)
формат: *.srt
Info
Код:
General
Complete name                            : Doctor Sleep [Theatrical cut] (2019) UHD 2160p 4K HDR [ukr,eng] [Video_Hurtom].
Format                                   :
Format version                           : Version 4
File size                                : 23.9 GiB
Duration                                 : 2 h 32 min
Overall bit rate                         : 22.5 Mb/s
Movie name                               : Доктор Сон [Театральна версія] / Doctor Sleep [Theatrical cut]
Encoded date                             : UTC 2020-02-17 23:31:27
Writing application                      : v30.1.0 ('Forever And More') 64-bit
Writing library                          : libebml v1.3.6 + v1.4.9
Cover                                    : Yes
Attachments                              : cover.jpg

Video
ID                                       : 1
Format                                   : HEVC
Format/Info                              : High Efficiency Video Coding
Commercial name                          : HDR10
Format profile                           : Main [email protected]@Main
Codec ID                                 : V_MPEGH/ISO/HEVC
Duration                                 : 2 h 32 min
Bit rate                                 : 21.3 Mb/s
Width                                    : 3 840 pixels
Height                                   : 2 076 pixels
Display aspect ratio                     : 1.85:1
Frame rate mode                          : Constant
Frame rate                               : 23.976 (23976/1000) FPS
Color space                              : YUV
Chroma subsampling                       : 4:2:0
Bit depth                                : 10 bits
Bits/(Pixel*Frame)                       : 0.112
Stream size                              : 22.6 GiB (95%)
Title                                    : CHD
Writing library                          : x265 3.2+7-gb291a1c95+26:[Windows][MSVC 1916][64 bit] Yuuki 10bit
Encoding settings                        : rc=crf / crf=16.0000 / qcomp=0.82 / qpstep=4 / stats-write=0 / stats-read=0 / no-lossless / no-cu-lossless / aq-mode=1 / aq-strength=1.00 / cbqpoffs=0 / crqpoffs=0 / ipratio=1.40 / pbratio=1.30 / psy-rd=1.10 / psy-rdoq=0.00 / deblock=-1:-1 / ref=4 / limit-refs=1 / no-limit-modes / bframes=14 / b-adapt=2 / bframe-bias=0 / b-pyramid / b-intra / weightp / weightb / min-keyint=23 / max-keyint=250 / rc-lookahead=24 / gop-lookahead=0 / scenecut=40 / radl=0 / max-cu-size=64 / min-cu-size=8 / me=3 / subme=7 / merange=64 / rdoq-level=0 / rd=5 / rdpenalty=0 / dynamic-rd=0.00 / no-rd-refine / ----- / cutree / sao / no-rect / no-amp / no-open-gop / wpp / no-pmode / pme / no-psnr / no-ssim / nr-intra=0 / nr-inter=0 / no-constrained-intra / no-strong-intra-smoothing / max-tu-size=32 / tu-inter-depth=1 / tu-intra-depth=1 / limit-tu=0 / qg-size=32 / qpmax=69 / qpmin=0 / ----- / cpuid=1111039 / frame-threads=6 / numa-pools=36,36 / log-level=2 / input-csp=1 / input-res=3840x2076 / interlace=0 / level-idc=0 / high-tier=1 / uhd-bd=0 / no-allow-non-conformance / repeat-headers / no-aud / no-hrd / info / hash=0 / no-temporal-layers / lookahead-slices=8 / no-splice / no-intra-refresh / no-ssim-rd / signhide / no-tskip / max-merge=3 / temporal-mvp / no-hme / no-analyze-src-pics / no-sao-non-deblock / selective-sao=4 / early-skip / rskip / no-fast-intra / no-tskip-fast / no-splitrd-skip / zone-count=0 / no-strict-cbr / no-rc-grain / no-const-vbv / sar=0 / overscan=0 / videoformat=5 / range=0 / colorprim=9 / transfer=16 / colormatrix=9 / chromaloc=0 / display-window=0 / master-display=G(13250,34500)B(7500,3000)R(34000,16000)WP(15635,16450)L(10000000,1) / cll=0,0 / min-luma=0 / max-luma=1023 / log2-max-poc-lsb=8 / vui-timing-info / vui-hrd-info / slices=1 / no-opt-qp-pps / no-opt-ref-list-length-pps / no-multi-pass-opt-rps / scenecut-bias=0.05 / no-opt-cu-delta-qp / aq-motion / hdr / hdr-opt / no-dhdr10-opt / no-idr-recovery-sei / analysis-reuse-level=5 / scale-factor=0 / refine-intra=0 / refine-inter=0 / refine-mv=1 / refine-ctu-distortion=0 / no-limit-sao / ctu-info=0 / no-lowpass-dct / refine-analysis-type=0 / copy-pic=1 / max-ausize-factor=1.0 / no-dynamic-refine / no-single-sei / no-hevc-aq / no-svt / no-field / qp-adaptation-range=1.00
Language                                 : English
Default                                  : Yes
Forced                                   : No
Color range                              : Limited
Color primaries                          : BT.2020
Transfer characteristics                 : PQ
Matrix coefficients                      : BT.2020 non-constant
Mastering display color primaries        : Display P3
Mastering display luminance              : min: 0.0001 cd/m2, max: 1000 cd/m2

Audio #1
ID                                       : 2
Format                                   : AC-3
Format/Info                              : Audio Coding 3
Commercial name                          : Dolby Digital
Codec ID                                 : A_AC3
Duration                                 : 2 h 31 min
Bit rate mode                            : Constant
Bit rate                                 : 384 kb/s
Channel(s)                               : 6 channels
Channel layout                           : L R C LFE Ls Rs
Sampling rate                            : 48.0 kHz
Frame rate                               : 31.250 FPS (1536 SPF)
Bit depth                                : 16 bits
Compression mode                         : Lossy
Stream size                              : 417 MiB (2%)
Title                                    : , 5.1, 384 Kbps
Language                                 : Ukrainian
Service kind                             : Complete Main
Default                                  : Yes
Forced                                   : No

Audio #2
ID                                       : 3
Format                                   : AC-3
Format/Info                              : Audio Coding 3
Commercial name                          : Dolby Digital
Codec ID                                 : A_AC3
Duration                                 : 2 h 32 min
Bit rate mode                            : Constant
Bit rate                                 : 192 kb/s
Channel(s)                               : 2 channels
Channel layout                           : L R
Sampling rate                            : 48.0 kHz
Frame rate                               : 31.250 FPS (1536 SPF)
Bit depth                                : 16 bits
Compression mode                         : Lossy
Stream size                              : 209 MiB (1%)
Title                                    : , 2.0, 192 Kbps
Language                                 : Ukrainian
Service kind                             : Complete Main
Default                                  : No
Forced                                   : No

Audio #3
ID                                       : 4
Format                                   : AC-3
Format/Info                              : Audio Coding 3
Commercial name                          : Dolby Digital
Codec ID                                 : A_AC3
Duration                                 : 2 h 32 min
Bit rate mode                            : Constant
Bit rate                                 : 640 kb/s
Channel(s)                               : 6 channels
Channel layout                           : L R C LFE Ls Rs
Sampling rate                            : 48.0 kHz
Frame rate                               : 31.250 FPS (1536 SPF)
Bit depth                                : 16 bits
Compression mode                         : Lossy
Stream size                              : 696 MiB (3%)
Title                                    : , 5.1, 640 Kbps
Language                                 : English
Service kind                             : Complete Main
Default                                  : No
Forced                                   : No

Text #1
ID                                       : 5
Format                                   : UTF-8
Codec ID                                 : S_TEXT/UTF8
Codec ID/Info                            : UTF-8 Plain Text
Duration                                 : 2 h 14 min
Bit rate                                 : 1 b/s
Count of elements                        : 43
Stream size                              : 1.74 KiB (0%)
Title                                    : Forced
Language                                 : Ukrainian
Default                                  : Yes
Forced                                   : No

Text #2
ID                                       : 6
Format                                   : UTF-8
Codec ID                                 : S_TEXT/UTF8
Codec ID/Info                            : UTF-8 Plain Text
Duration                                 : 2 h 25 min
Bit rate                                 : 37 b/s
Count of elements                        : 1693
Stream size                              : 39.7 KiB (0%)
Title                                    : Full
Language                                 : English
Default                                  : No
Forced                                   : No

Text #3
ID                                       : 7
Format                                   : UTF-8
Codec ID                                 : S_TEXT/UTF8
Codec ID/Info                            : UTF-8 Plain Text
Duration                                 : 2 h 25 min
Bit rate                                 : 42 b/s
Count of elements                        : 1943
Stream size                              : 45.4 KiB (0%)
Title                                    : SDH
Language                                 : English
Default                                  : No
Forced                                   : No

Menu
00:00:00.000                             : en:Chapter 01
00:10:36.302                             : en:Chapter 02
00:19:44.350                             : en:Chapter 03
00:29:23.345                             : en:Chapter 04
00:39:51.931                             : en:Chapter 05
00:49:47.318                             : en:Chapter 06
00:58:24.710                             : en:Chapter 07
01:06:00.748                             : en:Chapter 08
01:11:00.756                             : en:Chapter 09
01:20:35.497                             : en:Chapter 10
01:27:07.013                             : en:Chapter 11
01:35:13.458                             : en:Chapter 12
01:44:01.902                             : en:Chapter 13
01:52:52.724                             : en:Chapter 14
02:01:22.734                             : en:Chapter 15
02:08:01.507                             : en:Chapter 16
02:17:27.156                             : en:Chapter 17
02:23:06.703                             : en:Chapter 18
02:26:22.107                             : en:Chapter 19
Скріншоти


Джерело: &
Особиста оцінка: 0 - не дивився
Увага! Перед завантаженням переконайтесь, що ваш пристрій відтворення (та/або ПЗ) підтримує H.265 (HEVC)


 Трекер:    Зареєстрований   

Завантажити / скачати фільм українською



відео для новачків



 Зареєстрований:   2020-02-18 02:10
 Розмір:   23.93 GB 
 Оцінка фільму:   9.8/10 (Голосів: 11)
 ЗАЛИШАЙТЕСЬ ЯКОМОГА ДОВШЕ НА РОЗДАЧІ! ЗАВАНТАЖИВ САМ - ДАЙ ЗАВАНТАЖИТИ ІНШИМ!
   
Айзен 
Новенький


З нами з: 16.05.10
Востаннє: 28.02.20
Повідомлень: 9

2020-01-26 10:46  
Краща екранізація роману Стівена Кінга, будь-коли відзнята. Через невдале й беззмістовне розкриття природи "сяйва" Кубриком режисеру і сценаристам цього фільму довелося витратити час на повторне тлумачення феномену "сяйва", від чого початок може здатися затягнутим. Втім, воно того варте. Для мене це кращий фільм 2019 року. Те, як показано протистояння розумів "сяючих" стане наріжним каменем в розкритті надприродних здібностей людей у подібних стрічках. 10 з 10.
Anonymous 







2020-01-27 22:22  
Торент файл оновлено. Заміна відео на якісніше.
Anonymous 







2020-02-18 02:11  
Торент файл оновлено. Додано аудіо 5.1
Ваш часовий пояс: GMT + 2 Години

Нова тема   Відповісти