Русалонька. Трилогія / The Little Mermaid. Trilogy (1989-2008) 1080p H.265 Ukr/Eng | Sub Eng

Нові коментарі

Нова тема   Відповісти
Автор Повідомлення
Anonymous 







2020-01-24 00:51  
Русалонька. Трилогія / The Little Mermaid. Trilogy (1989-2008) 1080p H.265 Ukr/Eng | Sub Eng

Русалонька. Трилогія / The Little Mermaid. Trilogy (1989-2008) 1080p H.265 Ukr/Eng | Sub Eng

1. 2. 3.

1. Русалонька / The Little Mermaid (1989) 1080p H.265 Ukr/Eng | Sub Ukr/Eng
Русалонька / The Little Mermaid (1989) 1080p H.265 Ukr/Eng | Sub Ukr/Eng

Русалонька. Трилогія / The Little Mermaid. Trilogy (1989-2008) 1080p H.265 Ukr/Eng | Sub Eng


Жанр: анімація, музичний, фентезі, мелодрама, сімейний
Країна: США
Кінокомпанія: Walt Disney Pictures, Silver Screen Partners IV, Walt Disney Feature Animation
Режисер: Рон Клементс / Ron Clements, Джон Маскер / John Musker
Актори: Джоді Бенсон / Jodi Benson, Пет Керролл / Pat Carroll, Рене Обержонуа / Rene Auberjonois, Крістофер Деніел Барнс / Christopher Daniel Barnes, Педді Едвардс / Paddi Edwards, Бадді Гаккетт / Buddy Hackett, Джейсон Марін / Jason Marin, Кеннет Марс / Kenneth Mars, Еді МакКлерг / Edie McClurg, Вілл Раян / Will Ryan та інші

Сюжет:
Таємничі глибини моря приховують чимало таємниць, а мешканці океану можуть розповісти безліч дивовижних історій. І найнеймовірнішою з них була і залишається історія русалоньки Аріель. Дочка могутнього царя підводного світу Тритона одного разу закохується в прекрасного і мужнього принца. Але хіба вони можуть бути разом - земна людина і морська діва? Однак справжні почуття долають будь-які перешкоди. Заради свого кохання Аріель готова піти на все, навіть якщо для набуття свого щастя їй назавжди доведеться покинути рідний океан і навіки стати земною дівчиною ...

Тривалість: 01:22:48
Якість:

Відео:
кодек: H.265 (HEVC)
розмір кадру: 1920 x 1080
бітрейт: 11 808 кб/с
бітова глибина: 10 біт

Увага! Перед завантаженням переконайтесь, що ваш пристрій відтворення (та/або ПЗ) підтримує H.265 (HEVC)

Аудіо # 1:
мова: українська
переклад: професійний дубльований | Студія LeDoyen
кодек: AC-3 5.1
бітрейт: 384 кб/с

Аудіо # 2:
мова: англійська
переклад: оригінал
кодек: 5.1
бітрейт: 1510 кб/с

Аудіо # 3:
мова: англійська
переклад: оригінал | коментарі режисерів Рона Клементса та Джона Маскера і композитора Алана Менкена
кодек: AC-3 2.0
бітрейт: 192 кб/с

Субтитри # 1: (Full)
мова: українська
тип: програмні (м'які)
формат: *.srt

Субтитри # 2-5: (Forced, Songs, Full, SDH)
мова: англійська
тип: програмні (м'які)
формат: *.srt


Info
Код:
General
Unique ID                                : 84211711629431047536355929148355556749 (0x3F5A95F10F2BB2BCBADB0CF4E4B0B58D)
Complete name                            : 1. The Little Mermaid (1989) 1080p H.265 [UKR_ENG] [Hurtom].
Format                                   :
Format version                           : Version 4
File size                                : 8.04 GiB
Duration                                 : 1 h 22 min
Overall bit rate                         : 13.9 Mb/s
Movie name                               : Русалонька / The Little Mermaid (1989)
Encoded date                             : UTC 2020-01-23 20:54:43
Writing application                      : v20.0.0 ('I Am The Sun') 64-bit
Writing library                          : libebml v1.3.5 + v1.4.8
Cover                                    : Yes
Attachments                              : Cover.jpg

Video
ID                                       : 1
Format                                   : HEVC
Format/Info                              : High Efficiency Video Coding
Format profile                           : Main [email protected]@High
Codec ID                                 : V_MPEGH/ISO/HEVC
Duration                                 : 1 h 22 min
Bit rate                                 : 11.8 Mb/s
Width                                    : 1 920 pixels
Height                                   : 1 080 pixels
Display aspect ratio                     : 16:9
Frame rate mode                          : Constant
Frame rate                               : 23.976 (23976/1000) FPS
Original frame rate                      : 23.976 (24000/1001) FPS
Color space                              : YUV
Chroma subsampling                       : 4:2:0
Bit depth                                : 10 bits
Bits/(Pixel*Frame)                       : 0.237
Stream size                              : 6.83 GiB (85%)
Title                                    : Русалонька / The Little Mermaid (1989)
Writing library                          : x265 3.2.1+1-b5c86a64bbbe:[Windows][MSVC 1923][64 bit] 10bit
Encoding settings                        : cpuid=1111039 / frame-threads=3 / numa-pools=12 / wpp / no-pmode / no-pme / no-psnr / no-ssim / log-level=2 / input-csp=1 / input-res=1920x1080 / interlace=0 / total-frames=112636 / level-idc=41 / high-tier=1 / uhd-bd=0 / ref=5 / no-allow-non-conformance / no-repeat-headers / annexb / no-aud / no-hrd / info / hash=0 / no-temporal-layers / open-gop / min-keyint=23 / keyint=240 / gop-lookahead=0 / bframes=10 / b-adapt=2 / b-pyramid / bframe-bias=0 / rc-lookahead=60 / lookahead-slices=4 / scenecut=40 / radl=0 / no-splice / no-intra-refresh / ctu=32 / min-cu-size=8 / rect / amp / max-tu-size=32 / tu-inter-depth=4 / tu-intra-depth=4 / limit-tu=1 / rdoq-level=2 / dynamic-rd=0.00 / no-ssim-rd / signhide / no-tskip / nr-intra=0 / nr-inter=0 / no-constrained-intra / no-strong-intra-smoothing / max-merge=4 / limit-refs=2 / limit-modes / me=3 / subme=7 / merange=57 / temporal-mvp / no-hme / weightp / weightb / no-analyze-src-pics / deblock=-3:-3 / no-sao / no-sao-non-deblock / rd=6 / selective-sao=0 / no-early-skip / no-rskip / no-fast-intra / no-tskip-fast / no-cu-lossless / no-b-intra / no-splitrd-skip / rdpenalty=0 / psy-rd=2.00 / psy-rdoq=1.00 / no-rd-refine / no-lossless / cbqpoffs=0 / crqpoffs=0 / rc=crf / crf=21.0 / qcomp=0.65 / qpstep=4 / stats-write=0 / stats-read=0 / vbv-maxrate=50000 / vbv-bufsize=50000 / vbv-init=0.9 / crf-max=0.0 / crf-min=0.0 / ipratio=1.40 / pbratio=1.30 / aq-mode=1 / aq-strength=1.00 / no-cutree / zone-count=0 / no-strict-cbr / qg-size=32 / no-rc-grain / qpmax=69 / qpmin=0 / no-const-vbv / sar=1 / overscan=0 / videoformat=5 / range=0 / colorprim=1 / transfer=1 / colormatrix=1 / chromaloc=0 / display-window=0 / cll=0,0 / min-luma=0 / max-luma=1023 / log2-max-poc-lsb=8 / vui-timing-info / vui-hrd-info / slices=1 / no-opt-qp-pps / no-opt-ref-list-length-pps / no-multi-pass-opt-rps / scenecut-bias=0.05 / no-opt-cu-delta-qp / no-aq-motion / no-hdr / no-hdr-opt / no-dhdr10-opt / no-idr-recovery-sei / analysis-reuse-level=5 / scale-factor=0 / refine-intra=0 / refine-inter=0 / refine-mv=1 / refine-ctu-distortion=0 / no-limit-sao / ctu-info=0 / no-lowpass-dct / refine-analysis-type=0 / copy-pic=1 / max-ausize-factor=1.0 / no-dynamic-refine / no-single-sei / no-hevc-aq / no-svt / no-field / qp-adaptation-range=1.00
Default                                  : Yes
Forced                                   : No
Color range                              : Limited
Color primaries                          : BT.709
Transfer characteristics                 : BT.709
Matrix coefficients                      : BT.709

Audio #1
ID                                       : 2
Format                                   : AC-3
Format/Info                              : Audio Coding 3
Commercial name                          : Dolby Digital
Codec ID                                 : A_AC3
Duration                                 : 1 h 22 min
Bit rate mode                            : Constant
Bit rate                                 : 384 kb/s
Channel(s)                               : 6 channels
Channel layout                           : L R C LFE Ls Rs
Sampling rate                            : 48.0 kHz
Frame rate                               : 31.250 FPS (1536 SPF)
Bit depth                                : 16 bits
Compression mode                         : Lossy
Stream size                              : 227 MiB (3%)
Title                                    : / 5.1 Ch / 384 kbps / ПД / Cine+ / Студія LeDoyen
Language                                 : Ukrainian
Service kind                             : Complete Main
Default                                  : Yes
Forced                                   : Yes

Audio #2
ID                                       : 3
Format                                   :
Format/Info                              : Digital Theater Systems
Codec ID                                 : A_DTS
Duration                                 : 1 h 22 min
Bit rate mode                            : Constant
Bit rate                                 : 1 509 kb/s
Channel(s)                               : 6 channels
Channel layout                           : C L R Ls Rs LFE
Sampling rate                            : 48.0 kHz
Frame rate                               : 93.750 FPS (512 SPF)
Bit depth                                : 24 bits
Compression mode                         : Lossy
Stream size                              : 894 MiB (11%)
Title                                    : / 5.1 Ch / 1509 kbps / Original
Language                                 : English
Default                                  : No
Forced                                   : No

Audio #3
ID                                       : 4
Format                                   : AC-3
Format/Info                              : Audio Coding 3
Commercial name                          : Dolby Digital
Codec ID                                 : A_AC3
Duration                                 : 1 h 22 min
Bit rate mode                            : Constant
Bit rate                                 : 192 kb/s
Channel(s)                               : 2 channels
Channel layout                           : L R
Sampling rate                            : 48.0 kHz
Frame rate                               : 31.250 FPS (1536 SPF)
Bit depth                                : 16 bits
Compression mode                         : Lossy
Stream size                              : 114 MiB (1%)
Title                                    : / 2.0 Ch / 192 kbps / Original / Commentary by John Musker, Ron Clements, Alan Menken
Language                                 : English
Service kind                             : Complete Main
Default                                  : No
Forced                                   : No

Text #1
ID                                       : 5
Format                                   : UTF-8
Codec ID                                 : S_TEXT/UTF8
Codec ID/Info                            : UTF-8 Plain Text
Duration                                 : 1 h 16 min
Bit rate                                 : 90 b/s
Count of elements                        : 918
Stream size                              : 51.1 KiB (0%)
Title                                    : Full
Language                                 : Ukrainian
Default                                  : Yes
Forced                                   : No

Text #2
ID                                       : 6
Format                                   : UTF-8
Codec ID                                 : S_TEXT/UTF8
Codec ID/Info                            : UTF-8 Plain Text
Duration                                 : 1 h 16 min
Bit rate                                 : 14 b/s
Count of elements                        : 251
Stream size                              : 7.89 KiB (0%)
Title                                    : Forced
Language                                 : English
Default                                  : No
Forced                                   : No

Text #3
ID                                       : 7
Format                                   : UTF-8
Codec ID                                 : S_TEXT/UTF8
Codec ID/Info                            : UTF-8 Plain Text
Duration                                 : 1 h 16 min
Bit rate                                 : 14 b/s
Count of elements                        : 251
Stream size                              : 7.90 KiB (0%)
Title                                    : Songs
Language                                 : English
Default                                  : No
Forced                                   : No

Text #4
ID                                       : 8
Format                                   : UTF-8
Codec ID                                 : S_TEXT/UTF8
Codec ID/Info                            : UTF-8 Plain Text
Duration                                 : 1 h 16 min
Bit rate                                 : 53 b/s
Count of elements                        : 953
Stream size                              : 29.9 KiB (0%)
Title                                    : Full
Language                                 : English
Default                                  : No
Forced                                   : No

Text #5
ID                                       : 9
Format                                   : UTF-8
Codec ID                                 : S_TEXT/UTF8
Codec ID/Info                            : UTF-8 Plain Text
Duration                                 : 1 h 20 min
Bit rate                                 : 61 b/s
Count of elements                        : 1208
Stream size                              : 36.3 KiB (0%)
Title                                    : SDH
Language                                 : English
Default                                  : No
Forced                                   : No

Menu
00:00:00.000                             : en:"Fathoms Below"
00:02:17.846                             : en:Main Titles
00:03:47.185                             : en:Sebastian's Concert
00:05:51.643                             : en:The Sunken Ship
00:08:56.035                             : en:Scuttle
00:10:48.982                             : en:Ursula Watches Ariel
00:15:01.359                             : en:"Part of Your World"
00:19:04.685                             : en:To the Surface
00:22:18.462                             : en:Storm at Sea
00:25:15.723                             : en:Eric is Saved
00:29:06.244                             : en:"Under the Sea"
00:32:56.057                             : en:Sebastian and King Triton
00:34:21.476                             : en:Ariel's Hidden Treasure
00:38:49.160                             : en:Ursula's Lair
00:40:00.690                             : en:"Poor Unfortunate Souls"
00:41:38.413                             : en:Ursula's Deal
00:45:42.615                             : en:In Eric's Kingdom
00:50:57.054                             : en:Dinner in the Castle
00:52:22.556                             : en:"Les Poissons"
00:57:21.772                             : en:A Tour of the Kingdom
00:59:35.947                             : en:"Kiss the Girl"
01:02:29.204                             : en:Ursula Takes Charge
01:05:45.650                             : en:The Wedding Ship
01:10:04.742                             : en:Sunset on the Third Day
01:12:48.739                             : en:Ursula's Wrath
01:15:33.154                             : en:Happy Ending
01:18:19.403                             : en:End Credits
Світлини



2. Русалонька 2. Повернення до моря / The Little Mermaid II: Return to the Sea (2000) 1080p H.265 Ukr/Eng | Sub Eng
Русалонька 2. Повернення до моря / The Little Mermaid II: Return to the Sea (2000) 1080p H.265 Ukr/Eng | Sub Eng

Русалонька. Трилогія / The Little Mermaid. Trilogy (1989-2008) 1080p H.265 Ukr/Eng | Sub Eng


Жанр: мюзікл, фентезі, драма
Країна: США
Кінокомпанія: Disney Studios
Режисер: Джим Кеммерад

Сюжет:
Дочка Аріель і принца Еріка, Мелоді, уже подорослішала, але її невблаганно вабить море. І, не дивлячись на всі зусилля її батьків, дівчинка все ж тікає в такий улюблений для неї світ. Там юна русалка зустрічає відьму Моргану, не менше підступну, ніж її сестра Урсула. Чи зможе Мелоді стати на перешкоді хитрого плану лиходійки і врятувати Атлантику?

Тривалість: 01:15:12
Якість:

Відео:
кодек: H.265 (HEVC)
розмір кадру: 1916 x 1080
бітрейт: 5 357 кб/с
бітова глибина: 10 біт

Увага! Перед завантаженням переконайтесь, що ваш пристрій відтворення (та/або ПЗ) підтримує H.265 (HEVC)

Аудіо # 1:
мова: українська
переклад: професійний дубльований
кодек: AC-3 2.0
бітрейт: 192 кб/с

Аудіо # 2:
мова: англійська
переклад: оригінал
кодек: 5.1
бітрейт: 1510 кб/с

Субтитри # 1-2: (Full, SDH)
мова: англійська
тип: програмні (м'які)
формат: *.srt


Info
Код:
General
Unique ID                                : 18105951680409711460676047290073203746 (0xD9F1456EB80D36DEA8519A7FF3DC422)
Complete name                            : 2. The Little Mermaid II. Return to the Sea (2000) 1080p H.265 [UKR_ENG] [Hurtom].
Format                                   :
Format version                           : Version 4
File size                                : 3.71 GiB
Duration                                 : 1 h 15 min
Overall bit rate                         : 7 061 kb/s
Movie name                               : Русалонька 2. Повернення до моря / The Little Mermaid II: Return to the Sea (2000)
Encoded date                             : UTC 2020-01-23 21:57:48
Writing application                      : v20.0.0 ('I Am The Sun') 64-bit
Writing library                          : libebml v1.3.5 + v1.4.8
Cover                                    : Yes
Attachments                              : cover.jpg

Video
ID                                       : 1
Format                                   : HEVC
Format/Info                              : High Efficiency Video Coding
Format profile                           : Main [email protected]@High
Codec ID                                 : V_MPEGH/ISO/HEVC
Duration                                 : 1 h 15 min
Bit rate                                 : 5 357 kb/s
Width                                    : 1 916 pixels
Height                                   : 1 080 pixels
Display aspect ratio                     : 16:9
Frame rate mode                          : Constant
Frame rate                               : 23.976 (23976/1000) FPS
Original frame rate                      : 23.976 (24000/1001) FPS
Color space                              : YUV
Chroma subsampling                       : 4:2:0
Bit depth                                : 10 bits
Bits/(Pixel*Frame)                       : 0.108
Stream size                              : 2.81 GiB (76%)
Title                                    : Русалонька 2. Повернення до моря / The Little Mermaid II: Return to the Sea (2000)
Writing library                          : x265 3.2.1+1-b5c86a64bbbe:[Windows][MSVC 1923][64 bit] 10bit
Encoding settings                        : cpuid=1111039 / frame-threads=3 / numa-pools=12 / wpp / no-pmode / no-pme / no-psnr / no-ssim / log-level=2 / input-csp=1 / input-res=1916x1080 / interlace=0 / total-frames=108193 / level-idc=41 / high-tier=1 / uhd-bd=0 / ref=5 / no-allow-non-conformance / no-repeat-headers / annexb / no-aud / no-hrd / info / hash=0 / no-temporal-layers / open-gop / min-keyint=23 / keyint=240 / gop-lookahead=0 / bframes=10 / b-adapt=2 / b-pyramid / bframe-bias=0 / rc-lookahead=60 / lookahead-slices=4 / scenecut=40 / radl=0 / no-splice / no-intra-refresh / ctu=32 / min-cu-size=8 / rect / amp / max-tu-size=32 / tu-inter-depth=4 / tu-intra-depth=4 / limit-tu=1 / rdoq-level=2 / dynamic-rd=0.00 / no-ssim-rd / signhide / no-tskip / nr-intra=0 / nr-inter=0 / no-constrained-intra / no-strong-intra-smoothing / max-merge=4 / limit-refs=2 / limit-modes / me=3 / subme=7 / merange=57 / temporal-mvp / no-hme / weightp / weightb / no-analyze-src-pics / deblock=-3:-3 / no-sao / no-sao-non-deblock / rd=6 / selective-sao=0 / no-early-skip / no-rskip / no-fast-intra / no-tskip-fast / no-cu-lossless / no-b-intra / no-splitrd-skip / rdpenalty=0 / psy-rd=2.00 / psy-rdoq=1.00 / no-rd-refine / no-lossless / cbqpoffs=0 / crqpoffs=0 / rc=crf / crf=20.5 / qcomp=0.70 / qpstep=4 / stats-write=0 / stats-read=0 / vbv-maxrate=50000 / vbv-bufsize=50000 / vbv-init=0.9 / crf-max=0.0 / crf-min=0.0 / ipratio=1.40 / pbratio=1.30 / aq-mode=1 / aq-strength=1.00 / no-cutree / zone-count=0 / no-strict-cbr / qg-size=32 / no-rc-grain / qpmax=69 / qpmin=0 / no-const-vbv / sar=1 / overscan=0 / videoformat=5 / range=0 / colorprim=1 / transfer=1 / colormatrix=1 / chromaloc=0 / display-window=0 / cll=0,0 / min-luma=0 / max-luma=1023 / log2-max-poc-lsb=8 / vui-timing-info / vui-hrd-info / slices=1 / no-opt-qp-pps / no-opt-ref-list-length-pps / no-multi-pass-opt-rps / scenecut-bias=0.05 / no-opt-cu-delta-qp / no-aq-motion / no-hdr / no-hdr-opt / no-dhdr10-opt / no-idr-recovery-sei / analysis-reuse-level=5 / scale-factor=0 / refine-intra=0 / refine-inter=0 / refine-mv=1 / refine-ctu-distortion=0 / no-limit-sao / ctu-info=0 / no-lowpass-dct / refine-analysis-type=0 / copy-pic=1 / max-ausize-factor=1.0 / no-dynamic-refine / no-single-sei / no-hevc-aq / no-svt / no-field / qp-adaptation-range=1.00
Default                                  : Yes
Forced                                   : No
Color range                              : Limited
Color primaries                          : BT.709
Transfer characteristics                 : BT.709
Matrix coefficients                      : BT.709

Audio #1
ID                                       : 2
Format                                   : AC-3
Format/Info                              : Audio Coding 3
Commercial name                          : Dolby Digital
Codec ID                                 : A_AC3
Duration                                 : 1 h 15 min
Bit rate mode                            : Constant
Bit rate                                 : 192 kb/s
Channel(s)                               : 2 channels
Channel layout                           : L R
Sampling rate                            : 48.0 kHz
Frame rate                               : 31.250 FPS (1536 SPF)
Bit depth                                : 16 bits
Compression mode                         : Lossy
Stream size                              : 103 MiB (3%)
Title                                    : / 2.0 Ch / 192 kbps / ПД
Language                                 : Ukrainian
Service kind                             : Complete Main
Default                                  : Yes
Forced                                   : Yes

Audio #2
ID                                       : 3
Format                                   :
Format/Info                              : Digital Theater Systems
Codec ID                                 : A_DTS
Duration                                 : 1 h 15 min
Bit rate mode                            : Constant
Bit rate                                 : 1 509 kb/s
Channel(s)                               : 6 channels
Channel layout                           : C L R Ls Rs LFE
Sampling rate                            : 48.0 kHz
Frame rate                               : 93.750 FPS (512 SPF)
Bit depth                                : 24 bits
Compression mode                         : Lossy
Stream size                              : 812 MiB (21%)
Title                                    : / 5.1 Ch / 1509 kbps / Original
Language                                 : English
Default                                  : No
Forced                                   : No

Text #1
ID                                       : 4
Format                                   : UTF-8
Codec ID                                 : S_TEXT/UTF8
Codec ID/Info                            : UTF-8 Plain Text
Duration                                 : 1 h 8 min
Bit rate                                 : 53 b/s
Count of elements                        : 929
Stream size                              : 26.8 KiB (0%)
Title                                    : Full
Language                                 : English
Default                                  : No
Forced                                   : No

Text #2
ID                                       : 5
Format                                   : UTF-8
Codec ID                                 : S_TEXT/UTF8
Codec ID/Info                            : UTF-8 Plain Text
Duration                                 : 1 h 11 min
Bit rate                                 : 62 b/s
Count of elements                        : 1160
Stream size                              : 32.7 KiB (0%)
Title                                    : SDH
Language                                 : English
Default                                  : No
Forced                                   : No

Menu
00:00:00.000                             : en:Main Title / "Down To The Sea"
00:04:00.067                             : en:A Very Special Locket
00:04:33.035                             : en:Threat From The Depths
00:09:55.736                             : en:Like Mother, Like Daughter
00:16:44.370                             : en:Anxious Moments
00:20:51.037                             : en:A Not-So-Perfect Party
00:23:52.704                             : en:A Peek Into The Past
00:25:52.871                             : en:In Search Of The Truth
00:28:17.038                             : en:Melody Meets Morgana
00:32:48.538                             : en:A Dream Come True ("For A Moment")
00:35:38.538                             : en:A Diabolical Deception
00:37:25.205                             : en:New Friends ("Tip And Dash")
00:44:25.539                             : en:Old Friends
00:46:22.073                             : en:Taking The Trident
00:52:56.240                             : en:Melody's Big Mistake
01:00:03.540                             : en:Reluctant Heroes
01:02:14.540                             : en:Showdown With The Mighty Morgana
01:05:45.740                             : en:A Most Precious Gift ("Here On The Land And The Sea")
01:08:54.708                             : en:End Credits ("Part Of Your World")
Світлини



3. Русалонька. Дитинство Аріель / The Little Mermaid: Ariel's Beginning (2008) 1080p H.265 Ukr/Eng | Sub Eng
Русалонька. Дитинство Аріель / The Little Mermaid: Ariel's Beginning (2008) 1080p H.265 Ukr/Eng | Sub Eng

Русалонька. Трилогія / The Little Mermaid. Trilogy (1989-2008) 1080p H.265 Ukr/Eng | Sub Eng


Жанр: мюзікл, фентезі, драма
Країна: США
Кінокомпанія: Disneytoon Studios
Режисер: Пеггі Холмс

Сюжет:
Дія мультика відбувається в ті давні часи, коли Аріель ще не зустріла своє справжнє кохання Еріка. Музичні інструменти і заняття музикою були заборонені в підводному королівстві. Юну русалоньку це дуже засмучувало, адже вона була змушена або порушити правила, або покинути своє улюблене заняття.

Тривалість: 01:17:30
Якість:

Відео:
кодек: H.265 (HEVC)
розмір кадру: 1916 x 1080
бітрейт: 4 206 кб/с
бітова глибина: 10 біт

Увага! Перед завантаженням переконайтесь, що ваш пристрій відтворення (та/або ПЗ) підтримує H.265 (HEVC)

Аудіо # 1:
мова: українська
переклад: професійний дубльований
кодек: AC-3 2.0
бітрейт: 192 кб/с

Аудіо # 2:
мова: англійська
переклад: оригінал
кодек: 5.1
бітрейт: 1510 кб/с

Субтитри # 1: (Full)
мова: англійська
тип: програмні (м'які)
формат: *.srt


Info
Код:
General
Unique ID                                : 153091321075196479807295641793300880521 (0x732C50E1FF6D427031CCA1D4BC115C89)
Complete name                            : 3. The Little Mermaid. Ariel's Beginning (2008) 1080p H.265 [UKR_ENG] [Hurtom].
Format                                   :
Format version                           : Version 4
File size                                : 3.20 GiB
Duration                                 : 1 h 17 min
Overall bit rate                         : 5 902 kb/s
Movie name                               : Русалонька. Дитинство Аріель / The Little Mermaid: Ariel's Beginning (2008)
Encoded date                             : UTC 2020-01-23 22:12:45
Writing application                      : v20.0.0 ('I Am The Sun') 64-bit
Writing library                          : libebml v1.3.5 + v1.4.8
Cover                                    : Yes
Attachments                              : cover.jpeg

Video
ID                                       : 1
Format                                   : HEVC
Format/Info                              : High Efficiency Video Coding
Format profile                           : Main [email protected]@High
Codec ID                                 : V_MPEGH/ISO/HEVC
Duration                                 : 1 h 17 min
Bit rate                                 : 4 206 kb/s
Width                                    : 1 916 pixels
Height                                   : 1 080 pixels
Display aspect ratio                     : 16:9
Frame rate mode                          : Constant
Frame rate                               : 23.976 (23976/1000) FPS
Original frame rate                      : 23.976 (24000/1001) FPS
Color space                              : YUV
Chroma subsampling                       : 4:2:0
Bit depth                                : 10 bits
Bits/(Pixel*Frame)                       : 0.085
Stream size                              : 2.28 GiB (71%)
Title                                    : Русалонька. Дитинство Аріель / The Little Mermaid: Ariel's Beginning (2008)
Writing library                          : x265 3.2.1+1-b5c86a64bbbe:[Windows][MSVC 1923][64 bit] 10bit
Encoding settings                        : cpuid=1111039 / frame-threads=3 / numa-pools=12 / wpp / no-pmode / no-pme / no-psnr / no-ssim / log-level=2 / input-csp=1 / input-res=1916x1080 / interlace=0 / total-frames=111505 / level-idc=41 / high-tier=1 / uhd-bd=0 / ref=5 / no-allow-non-conformance / no-repeat-headers / annexb / no-aud / no-hrd / info / hash=0 / no-temporal-layers / open-gop / min-keyint=23 / keyint=240 / gop-lookahead=0 / bframes=8 / b-adapt=2 / b-pyramid / bframe-bias=0 / rc-lookahead=60 / lookahead-slices=4 / scenecut=40 / radl=0 / no-splice / no-intra-refresh / ctu=32 / min-cu-size=8 / rect / amp / max-tu-size=32 / tu-inter-depth=4 / tu-intra-depth=4 / limit-tu=1 / rdoq-level=2 / dynamic-rd=0.00 / no-ssim-rd / signhide / no-tskip / nr-intra=0 / nr-inter=0 / no-constrained-intra / no-strong-intra-smoothing / max-merge=4 / limit-refs=2 / limit-modes / me=3 / subme=7 / merange=57 / temporal-mvp / no-hme / weightp / weightb / no-analyze-src-pics / deblock=-3:-3 / no-sao / no-sao-non-deblock / rd=6 / selective-sao=0 / no-early-skip / no-rskip / no-fast-intra / no-tskip-fast / no-cu-lossless / no-b-intra / no-splitrd-skip / rdpenalty=0 / psy-rd=2.00 / psy-rdoq=1.00 / no-rd-refine / no-lossless / cbqpoffs=0 / crqpoffs=0 / rc=crf / crf=20.5 / qcomp=0.70 / qpstep=4 / stats-write=0 / stats-read=0 / vbv-maxrate=50000 / vbv-bufsize=50000 / vbv-init=0.9 / crf-max=0.0 / crf-min=0.0 / ipratio=1.40 / pbratio=1.30 / aq-mode=1 / aq-strength=1.00 / no-cutree / zone-count=0 / no-strict-cbr / qg-size=32 / no-rc-grain / qpmax=69 / qpmin=0 / no-const-vbv / sar=1 / overscan=0 / videoformat=5 / range=0 / colorprim=1 / transfer=1 / colormatrix=1 / chromaloc=0 / display-window=0 / cll=0,0 / min-luma=0 / max-luma=1023 / log2-max-poc-lsb=8 / vui-timing-info / vui-hrd-info / slices=1 / no-opt-qp-pps / no-opt-ref-list-length-pps / no-multi-pass-opt-rps / scenecut-bias=0.05 / no-opt-cu-delta-qp / no-aq-motion / no-hdr / no-hdr-opt / no-dhdr10-opt / no-idr-recovery-sei / analysis-reuse-level=5 / scale-factor=0 / refine-intra=0 / refine-inter=0 / refine-mv=1 / refine-ctu-distortion=0 / no-limit-sao / ctu-info=0 / no-lowpass-dct / refine-analysis-type=0 / copy-pic=1 / max-ausize-factor=1.0 / no-dynamic-refine / no-single-sei / no-hevc-aq / no-svt / no-field / qp-adaptation-range=1.00
Default                                  : Yes
Forced                                   : No
Color range                              : Limited
Color primaries                          : BT.709
Transfer characteristics                 : BT.709
Matrix coefficients                      : BT.709

Audio #1
ID                                       : 2
Format                                   : AC-3
Format/Info                              : Audio Coding 3
Commercial name                          : Dolby Digital
Codec ID                                 : A_AC3
Duration                                 : 1 h 17 min
Bit rate mode                            : Constant
Bit rate                                 : 192 kb/s
Channel(s)                               : 2 channels
Channel layout                           : L R
Sampling rate                            : 48.0 kHz
Frame rate                               : 31.250 FPS (1536 SPF)
Bit depth                                : 16 bits
Compression mode                         : Lossy
Stream size                              : 107 MiB (3%)
Title                                    : / 2.0 Ch / 192 kbps / ПД
Language                                 : Ukrainian
Service kind                             : Complete Main
Default                                  : Yes
Forced                                   : Yes

Audio #2
ID                                       : 3
Format                                   :
Format/Info                              : Digital Theater Systems
Codec ID                                 : A_DTS
Duration                                 : 1 h 17 min
Bit rate mode                            : Constant
Bit rate                                 : 1 509 kb/s
Channel(s)                               : 6 channels
Channel layout                           : C L R Ls Rs LFE
Sampling rate                            : 48.0 kHz
Frame rate                               : 93.750 FPS (512 SPF)
Bit depth                                : 24 bits
Compression mode                         : Lossy
Stream size                              : 838 MiB (26%)
Title                                    : / 5.1 Ch / 1509 kbps / Original
Language                                 : English
Default                                  : No
Forced                                   : No

Text
ID                                       : 4
Format                                   : UTF-8
Codec ID                                 : S_TEXT/UTF8
Codec ID/Info                            : UTF-8 Plain Text
Duration                                 : 1 h 9 min
Bit rate                                 : 52 b/s
Count of elements                        : 896
Stream size                              : 26.5 KiB (0%)
Title                                    : Full
Language                                 : English
Default                                  : No
Forced                                   : No

Menu
00:00:00.000                             : en:The Little Mermaid: Ariel's Beginning
00:02:42.746                             : en:A Music Box
00:05:40.215                             : en:Morning Ritual
00:10:02.644                             : en:A Little Fun ("Just One Mistake")
00:15:24.257                             : en:Making Music
00:19:06.062                             : en:Following Flounder
00:24:00.272                             : en:The Catfish Club ("Jump in the Line")
00:26:22.664                             : en:"I Remember"
00:29:00.030                             : en:Help with Ariel
00:33:38.892                             : en:Together
00:37:39.215                             : en:Caught
00:41:25.108                             : en:Marina Celebrates
00:44:33.504                             : en:Jailed
00:48:04.548                             : en:Escape
00:52:25.434                             : en:"Are We There Yet?"
00:55:21.777                             : en:Discovery
01:00:26.623                             : en:Marina's Electric Eels
01:04:42.754                             : en:Ariel's Bravery
01:06:58.014                             : en:A New Atlantica ("I Will Sing")
01:09:24.702                             : en:Samba!
01:10:43.239                             : en:End Credits
Світлини




Джерело: &
Особиста оцінка: 10 - без зайвих вагань рекомендую всім!


Срібний реліз (на рейтинг впливає 50% завантаженого)
 Трекер:    Зареєстрований   

Завантажити / скачати мультфільм українською



відео для новачків



 Зареєстрований:   2020-01-24 00:51
 Розмір:   14.95 GB 
 Оцінка мультфільму:   10/10 (Голосів: 5)
   
OL3X 
VIP


З нами з: 25.11.15
Востаннє: 23.02.20
Повідомлень: 445

2020-01-24 07:59  
Скоро Disney випустить рімейк з чорною русалкою.
pintg 
Поважний учасник


З нами з: 14.04.16
Востаннє: 23.02.20
Повідомлень: 164

2020-01-24 21:28  
OL3X написано:
Скоро Disney випустить рімейк з чорною русалкою.

Той незручний момент, коли не знаєш, чи то людина так жартує... чи то вже не жарти.

Anonymous 







2020-01-25 15:07  
pintg написано:
Той незручний момент, коли не знаєш, чи то людина так жартує... чи то вже не жарти.

Це не жарт - рімейк з чорною русалкою таки буде...

-VJ- 
VIP


З нами з: 01.11.09
Востаннє: 23.02.20
Повідомлень: 736

2020-01-26 13:18  
Це буде не рімейк, а фільм за мотивами старого мультфільма в рамках "кіновсесвіту Дісней", в якому вони перезнімають всі свої мультфільми на кінофільми для більш дорослої аудиторії.

Між іншим, не здивуюсь, якщо років за тридцять Дісней ще й зробить "дорослу версію".

pintg 
Поважний учасник


З нами з: 14.04.16
Востаннє: 23.02.20
Повідомлень: 164

2020-01-31 01:06  
-VJ- написано:
Між іншим, не здивуюсь, якщо років за тридцять Дісней ще й зробить "дорослу версію".

Спершу хотів заперечити, що мов дорослу версію вже певно відзняли... хоча думаю це не зупинить їх зробити "офіційну" "дорослу версію".

Anonymous написано:
Це не жарт - рімейк з чорною русалкою таки буде...

З такими тенденціями я скоро стану дивитись лише старе добре кіно(((

Ваш часовий пояс: GMT + 2 Години

Нова тема   Відповісти