[Збір коштів] Зоряні Війни: Війни клонів (Сезон 7, серії 1-8) / Star Wars: The Clone Wars (Season 7, Episodes 1-8) (2020) 720p Ukr/Eng | Sub Ukr/Eng

Нові коментарі

Нова тема   Відповісти
Сторінка:  1, 2, 3, 4  наступна
Автор Повідомлення
Anaive 
VIP


З нами з: 07.06.11
Востаннє: 09.07.20
Повідомлень: 251

2020-01-23 23:00  
Зоряні Війни: Війни клонів (Сезон 7) / Star Wars: The Clone Wars (Season 7) (2020) 720p Ukr/Eng | Sub Ukr/Eng

ПІДТРИМАТИ ОЗВУЧЕННЯ ТУТ



Жанр: анімація, пригодницький, сімейний, фантастика
Країна: США



Кінокомпанія / телеканал: Lucasfilm Ltd., Walt Disney Studios, Disney+
Режисер: Стюард Лі
Актори/ролі озвучують: Том Кейн, Ді Бредлі Бейкер, Катарін Тейбер, Джеймсон Арнольд Тейло та ін.

Сюжет:
Дія у мультсеріалі розгортаються на часовому проміжку між другим та третім епізодами фільму "Зоряні Війни". Кожна серія описує невеликий період Війн Клонів.


Тривалість: 1 серія: 00:23:00 ( цілком серій: 1-8 з 12)
Перелік серій

01. Погана Партія.
02. Ехо вдалині.
03. На крилах кірадаків.
04. Незакінчена справа.
05. Зникла без сліду
06. Угода без угоди
07. Небезпечний борг
08. Знову разом
09. Старі друзі не забуті
10. Таємний учень
11. Розкол
12. Перемога і Смерть
Якість:
Відео:
кодек:
розмір кадру: 1280x720
бітрейт: ~ 4245 кб/с

Аудіо # 1:
мова: українська
переклад: багатоголосий закадровий
кодек: 2.0
бітрейт: 256 кб/с

Аудіо # 2:
мова: англійська
переклад: оригінал
кодек: E- 5.1 | 6 серія
бітрейт: 256 кб/с | 6 серія 512 кб/с

Субтитри # 1:
мова: українська
тип: програмні (м'які)
формат: .srt

Субтитри # 2:
мова: англійська
тип: програмні (м'які)
формат: .srt

Переклад: AnaivE (1 серія), ХевіЮА (2-12 серії)
Джерело озвучення: Artymko & AnaivE & В одне рило
Info

General
Unique ID : 319401734990857836937176089697752427885 (0xF04A895CB46D994BE982B2A703A7AD6D)
Complete name : D:\Video\Star.Wars.The.Clone.Wars.S07.VOdneRilo.720p\Star.Wars.The.Clone.Wars.S07E01.VOdneRilo.720p.
Format :
Format version : Version 4
File size : 812 MiB
Duration : 23 min 52 s
Overall bit rate mode : Variable
Overall bit rate : 4 756 kb/s
Encoded date : UTC 2020-02-22 18:35:01
Writing application : v41.0.0 ('Smarra') 64-bit
Writing library : libebml v1.3.9 + v1.5.2

Video
ID : 1
Format : AVC
Format/Info : Advanced Video Codec
Format profile : [email protected]
Format settings : CABAC / 4 Ref Frames
Format settings, CABAC : Yes
Format settings, Reference : 4 frames
Codec ID : V_MPEG4/ISO/AVC
Duration : 23 min 51 s
Bit rate mode : Variable
Bit rate : 4 245 kb/s
Maximum bit rate : 6 375 kb/s
Width : 1 280 pixels
Height : 720 pixels
Display aspect ratio : 16:9
Frame rate mode : Constant
Frame rate : 23.976 (24000/1001) FPS
Color space : YUV
Chroma subsampling : 4:2:0
Bit depth : 8 bits
Scan type : Progressive
Bits/(Pixel*Frame) : 0.192
Stream size : 725 MiB (89%)
Language : English
Default : Yes
Forced : No
Color range : Limited
Color primaries : BT.709
Transfer characteristics : BT.709
Matrix coefficients : BT.709

Audio #1
ID : 2
Format : AC-3
Format/Info : Audio Coding 3
Commercial name : Dolby Digital
Codec ID : A_AC3
Duration : 23 min 52 s
Bit rate mode : Constant
Bit rate : 256 kb/s
Channel(s) : 2 channels
Channel layout : L R
Sampling rate : 48.0 kHz
Frame rate : 31.250 FPS (1536 SPF)
Compression mode : Lossy
Stream size : 43.7 MiB (5%)
Language : Ukrainian
Service kind : Complete Main
Default : Yes
Forced : No

Audio #2
ID : 3
Format : E-AC-3
Format/Info : Enhanced AC-3
Commercial name : Dolby Digital Plus
Codec ID : A_EAC3
Duration : 23 min 51 s
Bit rate mode : Constant
Bit rate : 256 kb/s
Channel(s) : 6 channels
Channel layout : L R C LFE Ls Rs
Sampling rate : 48.0 kHz
Frame rate : 31.250 FPS (1536 SPF)
Compression mode : Lossy
Stream size : 43.7 MiB (5%)
Language : English
Service kind : Complete Main
Default : No
Forced : No

Text #1
ID : 4
Format : UTF-8
Codec ID : S_TEXT/UTF8
Codec ID/Info : UTF-8 Plain Text
Duration : 23 min 0 s
Bit rate : 90 b/s
Count of elements : 283
Stream size : 15.2 KiB (0%)
Language : Ukrainian
Default : No
Forced : No

Text #2
ID : 5
Format : UTF-8
Codec ID : S_TEXT/UTF8
Codec ID/Info : UTF-8 Plain Text
Duration : 22 min 44 s
Bit rate : 54 b/s
Count of elements : 282
Stream size : 9.14 KiB (0%)
Language : English
Default : No
Forced : No
Скріншоти



Особиста оцінка: 10 - я просто обожнюю Всесвіт Зоряних Війн
На переклад та озвучення серіалу проходить збір коштів.
Вартість: 1 серії = 900 грн.
Всього 12 серій. Разом 10800 грн.

ПІДТРИМАТИ ОЗВУЧЕННЯ ТУТ(активне посилання) АБО ЗВЕРТАЙТЕСЬ У ПП
Наразі зібрано на дев'яту серію 357 грн. з 900 грн.
Озвучений трейлер Artymko & AnaivE & В одне рило


Авторський реліз (завантажувати можна без реєстрації)
 Трекер:    Зареєстрований   

Завантажити / скачати мультфільм українською



відео для новачків



 Зареєстрований:   2020-06-27 22:59
 Розмір:   6.05 GB 
 Оцінка мультсеріалу:   9.6/10 (Голосів: 24)
   
bot 
робот


З нами з: 30.09.07
Востаннє: 26.05.05
Повідомлень: 25015

2020-01-23 23:00  
Тему перенесено з Мультсеріали до форуму Анонси релізів


Anaive

Anaive 
VIP


З нами з: 07.06.11
Востаннє: 09.07.20
Повідомлень: 251

2020-01-23 23:03  
21 лютого
dedgabber 
Частий відвідувач


З нами з: 07.06.11
Востаннє: 07.07.20
Повідомлень: 33

2020-01-23 23:22  
чи буде якийсь трейлер?
Anaive 
VIP


З нами з: 07.06.11
Востаннє: 09.07.20
Повідомлень: 251

2020-01-23 23:25  
Так, завтра озвучу.

Додано через 1 хвилину 8 секунд:
Трейлер англ.

Комбат1995 
Поважний учасник


З нами з: 09.01.16
Востаннє: 08.07.20
Повідомлень: 154

2020-01-24 01:18  
Якби ще шостий сезон був озвучений українською)
Anaive 
VIP


З нами з: 07.06.11
Востаннє: 09.07.20
Повідомлень: 251

2020-01-24 09:54  
Був би попит Happy
zoomymba2012 
VIP


З нами з: 08.01.15
Востаннє: 09.07.20
Повідомлень: 683

2020-01-24 10:43  
А НЛО TV випадково не планує теж озвучувати цей останній сезон? У них же є блок STAR WARS на каналі.
Anaive 
VIP


З нами з: 07.06.11
Востаннє: 09.07.20
Повідомлень: 251

2020-01-24 12:08  
Коли?)
Через рік після завершення 7 сезону?
Інформації не знайшов щодо виходу серій на нло
Мейбі, погано шукав Happy

Додано через 37 хвилин 58 секунд:

Та й 6 не був озвучений

Anaive 
VIP


З нами з: 07.06.11
Востаннє: 09.07.20
Повідомлень: 251

2020-01-24 22:40  
Наразі зібрано на 1-шу серію 0 грн. з 900 грн.
Озвучений трейлер Artymko & AnaivE
Додано через 2 хвилини 35 секунд:

Прем'єра 21 лютого.

Anaive 
VIP


З нами з: 07.06.11
Востаннє: 09.07.20
Повідомлень: 251

2020-01-25 12:13  
+100 грн.
Дякую!

Anaive 
VIP


З нами з: 07.06.11
Востаннє: 09.07.20
Повідомлень: 251

2020-01-27 14:30  
Озвучувати буду в будь-якому випадку. Фінансова підтримка вплине лише на наявність субтитрів та 2 голосого озвучення Happy
Anaive 
VIP


З нами з: 07.06.11
Востаннє: 09.07.20
Повідомлень: 251

2020-02-05 10:13  
+100 без назви серіалу
Тому обрав сам куди їх врахувати
Дякую!

Anaive 
VIP


З нами з: 07.06.11
Востаннє: 09.07.20
Повідомлень: 251

2020-02-13 00:13  
Озвучений трейлер Artymko & AnaivE & В одне рило
Новий-старий трейлер. Тепер краще Happy

Anaive 
VIP


З нами з: 07.06.11
Востаннє: 09.07.20
Повідомлень: 251

2020-02-21 09:59  
Сьогодні прем'єра...
На першу серію зібрано 200 грн. з 900 грн.

Anaive 
VIP


З нами з: 07.06.11
Востаннє: 09.07.20
Повідомлень: 251

2020-02-21 20:11  
ми почали

Anaive 
VIP


З нами з: 07.06.11
Востаннє: 09.07.20
Повідомлень: 251

2020-02-21 23:34  
+100
І знову без назви серіалу, тому в пріоритетний - Зоряні Війни
Дякую!

bot 
робот


З нами з: 30.09.07
Востаннє: 26.05.05
Повідомлень: 25015

2020-02-22 21:40  
Тему перенесено з Анонси релізів до форуму Мультсеріали


Anaive

Anaive 
VIP


З нами з: 07.06.11
Востаннє: 09.07.20
Повідомлень: 251

2020-02-22 21:42  
1 серія.
Наразі зібрано на 1-шу серію 300 грн. з 900 грн.

бронн 
Частий відвідувач


З нами з: 21.10.16
Востаннє: 09.07.20
Повідомлень: 46

2020-02-23 11:24  
Супер! Давно очікую! Дякую!
11FrYkT 
Модератор відео


З нами з: 20.02.11
Востаннє: 09.07.20
Повідомлень: 6942

2020-02-23 14:52  
Anaive написано:
2020) 720p Ukr/Eng

в заголовку не вказані субтитри
Anaive написано:

Режисер:
Актори/ролі озвучують:

не дозаповнено, також відсутній перелік серій і їх назва
Anaive написано:
кодек: AVC

Н.264

Anaive 
VIP


З нами з: 07.06.11
Востаннє: 09.07.20
Повідомлень: 251

2020-02-23 16:09  
11FrYkT
+

bot 
робот


З нами з: 30.09.07
Востаннє: 26.05.05
Повідомлень: 25015

2020-02-23 17:55  
Тему перенесено з Мультсеріали до форуму Мультсеріали в HD


Dark Invader

Anaive 
VIP


З нами з: 07.06.11
Востаннє: 09.07.20
Повідомлень: 251

2020-02-24 17:24  
+100 через Liqpay
Дякую!

Anaive 
VIP


З нами з: 07.06.11
Востаннє: 09.07.20
Повідомлень: 251

2020-02-26 20:10  
+200
Дякую!

Anaive 
VIP


З нами з: 07.06.11
Востаннє: 09.07.20
Повідомлень: 251

2020-02-28 09:58  
Ситуація не змінилась
Станом на 28.02 зібрано 600грн.
Дякую всім хто допоміг Happy

Anaive 
VIP


З нами з: 07.06.11
Востаннє: 09.07.20
Повідомлень: 251

2020-03-02 17:53  
+100 грн. Дякую!
aston 
Новенький


З нами з: 09.05.12
Востаннє: 08.07.20
Повідомлень: 1

2020-03-05 13:36  
+200
Anaive 
VIP


З нами з: 07.06.11
Востаннє: 09.07.20
Повідомлень: 251

2020-03-05 13:37  
Отримав. Дякую! Беремось за другу серію Happy
Anaive 
VIP


З нами з: 07.06.11
Востаннє: 09.07.20
Повідомлень: 251

2020-03-06 10:31  
+200
Дякую!

Ваш часовий пояс: GMT + 2 Години

Нова тема   Відповісти Сторінка:  1, 2, 3, 4  наступна