Док / Doc (1971) Remux 1080p Ukr/Eng | Sub Eng

Нові коментарі

Нова тема   Відповісти
Останній раз роздавалося MakRA (2020-09-21)
Автор Повідомлення
kryk-v.ya. 
Попереджень: 1
Попереджень: 1 


З нами з: 14.02.14
Востаннє: 20.09.20
Повідомлень: 2238

2020-01-23 20:32  
Док / Doc (1971) Remux 1080p Ukr/Eng | Sub Eng

Док / Doc (1971) Remux 1080p Ukr/Eng | Sub Eng


Жанр: вестерн
Країна: США



Кінокомпанія: FP Films Production
Режисер: Френк Перрі
Актори: Стейсі Кіч, Фей Данавей, Харріс Юлін, Майкл Вітні, Денвер Джон Коллінз, Ден Грінбург.

Сюжет:
Історія про знаменитих героїв Дикого Заходу. У ніч 1881 року відомий гравець Док Холлідей грає в покер. Ставки - кінь проти дружини суперника. Док переміг і тепер Кеті Фішер, також відома як Кеті Елдер, буде слідувати за ним, куди б він не пішов. Доля привела їх до містечка Томстоун, де залізною рукою править грізний шериф Вайатт Ерп. За допомогою одного, блискучого стрілка Дока Холлідея, і своїх братів Ерп підтримує в місті мир і спокій.


Тривалість: 01:35:57
Якість: Remux 1080р
Відео:
кодек:
розмір кадру: 1920 х 1080
бітрейт: 25 Мбіт/с

Аудіо # 1:
мова: українська
переклад: багатоголосий закадровий |
кодек: 2.0
бітрейт: 192 кб/с
примітка: є місця без перекладу ~2 хв, на них є субтитри.

Аудіо # 2:
мова: англійська
переклад: оригінал
кодек: 2.0
бітрейт: 768 кб/с

Субтитри # 1 (forced):
мова: українська
тип: програмні (м'які) | на місця без перекладу загалом 2 хв.
формат: *.srt

Субтитри # 2:
мова: англійська
тип: програмні (м'які)
формат: *.srt
Info
General
Unique ID : 71454671978495950777930809915278553156 (0x35C1AB5381F3F14823249C9144DAF044)
Complete name : E:\Doc (1971) Remux 1080p (Hurtom).
Format :
Format version : Version 4 / Version 2
File size : 17.4 GiB
Duration : 1 h 35 min
Overall bit rate mode : Variable
Overall bit rate : 26.0 Mb/s
Encoded date : UTC 2020-01-24 09:00:25
Writing application : v25.0.0 ('Prog Noir') 64-bit
Writing library : libebml v1.3.6 + v1.4.9
Cover : Yes
Attachments : cover.jpg

Video
ID : 1
Format : AVC
Format/Info : Advanced Video Codec
Format profile : [email protected]
Format settings : CABAC / 3 Ref Frames
Format settings, CABAC : Yes
Format settings, ReFrames : 3 frames
Codec ID : V_MPEG4/ISO/AVC
Duration : 1 h 35 min
Bit rate mode : Variable
Bit rate : 25.0 Mb/s
Maximum bit rate : 38.0 Mb/s
Width : 1 920 pixels
Height : 1 080 pixels
Display aspect ratio : 16:9
Frame rate mode : Constant
Frame rate : 23.976 (24000/1001) FPS
Color space : YUV
Chroma subsampling : 4:2:0
Bit depth : 8 bits
Scan type : Progressive
Bits/(Pixel*Frame) : 0.503
Stream size : 16.8 GiB (96%)
Writing library : core 128 r2216 198a7ea
Encoding settings : cabac=1 / ref=4 / deblock=0:-1:-1 / analyse=0x3:0x133 / me=umh / subme=10 / psy=1 / psy_rd=1.00:0.15 / mixed_ref=1 / me_range=24 / chroma_me=1 / trellis=2 / 8x8dct=1 / cqm=0 / deadzone=21,11 / fast_pskip=1 / chroma_qp_offset=-3 / threads=12 / lookahead_threads=2 / sliced_threads=0 / slices=4 / nr=0 / decimate=0 / interlaced=0 / bluray_compat=1 / constrained_intra=0 / bframes=3 / b_pyramid=1 / b_adapt=2 / b_bias=0 / direct=3 / weightb=1 / open_gop=1 / weightp=1 / keyint=24 / keyint_min=1 / scenecut=40 / intra_refresh=0 / rc_lookahead=24 / rc=2pass / mbtree=0 / bitrate=25000 / ratetol=1.0 / qcomp=0.10 / qpmin=0 / qpmax=69 / qpstep=4 / cplxblur=20.0 / qblur=0.5 / vbv_maxrate=38000 / vbv_bufsize=28500 / nal_hrd=vbr / ip_ratio=1.40 / pb_ratio=1.30 / aq=1:0.60
Default : Yes
Forced : No
Color range : Limited
Color primaries : BT.709
Transfer characteristics : BT.709
Matrix coefficients : BT.709

Audio #1
ID : 2
Format : AC-3
Format/Info : Audio Coding 3
Commercial name : Dolby Digital
Codec ID : A_AC3
Duration : 1 h 35 min
Bit rate mode : Constant
Bit rate : 192 kb/s
Channel(s) : 2 channels
Channel layout : L R
Sampling rate : 48.0 kHz
Frame rate : 31.250 FPS (1536 SPF)
Bit depth : 16 bits
Compression mode : Lossy
Stream size : 132 MiB (1%)
Title : MVO-AMC
Language : Ukrainian
Service kind : Complete Main
Default : Yes
Forced : No

Audio #2
ID : 3
Format :
Format/Info : Digital Theater Systems
Codec ID : A_DTS
Duration : 1 h 35 min
Bit rate mode : Constant
Bit rate : 768 kb/s
Channel(s) : 2 channels
Channel layout : Lt Rt
Sampling rate : 48.0 kHz
Frame rate : 93.750 FPS (512 SPF)
Bit depth : 24 bits
Compression mode : Lossy
Stream size : 527 MiB (3%)
Title : Original
Language : English
Default : No
Forced : No

Text #1
ID : 4
Format : UTF-8
Codec ID : S_TEXT/UTF8
Codec ID/Info : UTF-8 Plain Text
Duration : 23 min 47 s
Bit rate : 5 b/s
Count of elements : 25
Stream size : 936 Bytes (0%)
Title : forced
Language : Ukrainian
Default : Yes
Forced : No

Text #2
ID : 5
Format : UTF-8
Codec ID : S_TEXT/UTF8
Codec ID/Info : UTF-8 Plain Text
Duration : 1 h 31 min
Bit rate : 37 b/s
Count of elements : 973
Stream size : 25.4 KiB (0%)
Title : full
Language : English
Default : No
Forced : No

Menu
00:00:00.000 : en:00:00:00.000 / en:Розділ 01
00:11:59.427 : en:00:11:59.427
00:17:20.957 : en:00:17:20.957
00:26:23.290 : en:00:26:23.290
00:37:54.272 : en:00:37:54.272
00:48:17.269 : en:00:48:17.269
00:59:37.073 : en:00:59:37.073
01:06:20.685 : en:01:06:20.685
01:18:52.311 : en:01:18:52.311
01:27:53.393 : en:01:27:53.393


Джерело: &
Особиста оцінка: 0 - не дивився

Подяка за запис з ТВ: slavik_v_z.


Золотий реліз (завантажене не впливає на рейтинг)
 Трекер:    Зареєстрований   

Завантажити / скачати фільм українською



відео для новачків



 Зареєстрований:   2020-01-24 15:34
 Розмір:   17.4 GB 
 Оцінка фільму:   9.8/10 (Голосів: 5)
   
Інші релізи
   Док / Doc (1971) Ukr/Eng 21jumpstreet  0 / 1   1.59 GB   2020-04-24 23:34 
+380954897458 
VIP


З нами з: 02.06.17
Востаннє: 18.09.20
Повідомлень: 942

2020-01-23 23:03  
Цитата:
не дивився

Я дивився. Варто переглянути задля загального розвитку, але захоплення фільм не викликав. Дивує позиція авторів стосовно Вайатта Ерпа. Він тут не герой, як у інших вестернах, а брудний махінатор, що діє виключно заради наживи. Тому й дружба між ним та Доком Холлідеєм хитка і крихка. Та й ширококостий здоровило Стейсі Кіч мало схожий на людину, що помирає від сухот. Фантазія на тему, коротше, цікава, але не більше.

bot 
робот


З нами з: 30.09.07
Востаннє: 26.05.05
Повідомлень: 25548

2020-01-24 15:34  
Тему перенесено з Анонси релізів до форуму Фільми в HD


kryk-v.ya.

Ваш часовий пояс: GMT + 2 Години

Нова тема   Відповісти