Хала / Hala (2019) 1080p Eng | sub Ukr/Eng

Нові коментарі

Нова тема   Відповісти
Останній раз роздавалося RebelStar (2020-09-14)
Автор Повідомлення
Anonymous 







2020-01-23 18:57  
Хала / Hala (2019) 1080p Eng | sub Ukr/Eng

Альтернативні постери:




Жанр: драма
Країна: США



Кінокомпанія: Overbrook Entertainment, 3 Arts Entertainment, Endeavor Content
Режисер: Мінгаль Байг / Minhal Baig
Актори: Джеральдін Вісванатхан / Geraldine Viswanathan, Джек Кілмер / Jack Kilmer, Габріель Луна / Gabriel Luna, Пурбі Джоші / Purbi Joshi, Азад Хан / Azad Khan, Анна Кламскі / Anna Chlumsky та інші.

Сюжет:
Молода американка пакистанського походження Хала змушена шукати баланс між сімейними, релігійними та культурними обов'язками.
Офіційний трейлер:


Рейтинг MPAA: R - особам до 17 років обов'язкова присутність батьків або дорослого опікуна
Вікова категорія: 16+

Тривалість: 01:33:57
Якість: 1080p

Відео:
кодек:
розмір кадру: 1920х1038
бітрейт: 10 Мб/с

Аудіо:
мова: англійська
переклад: оригінал
кодек: 5.1
бітрейт: 448 кб/с

Субтитри # 1:
мова: українська
тип: програмні (м'які)
формат: *.srt
перекладач: Олена Цехмейструк

Субтитри # 2-4:
мова: англійська (повні, SDH, forced)
тип: програмні (м'які)
формат: *.srt
Info
Код:

Complete name               : Hala (2019) [Eng sub.Ukr,Eng] 1080p [Hurtom].
Format                      :
Format version              : Version 4
File size                   : 6.86 GiB
Duration                    : 1 h 33 min
Overall bit rate            : 10.5 Mb/s
Movie name                  : Хала / Hala (2019) [Eng sub.Ukr,Eng] 1080p [Hurtom]
Encoded date                : UTC 2020-01-23 16:38:08
Writing application         : v42.0.0 ('Overtime') 64-bit
Writing library             : libebml v1.3.10 + v1.5.2
Cover                       : Yes
Attachments                 : cover.jpg

Video
ID                          : 1
Format                      : AVC
Format/Info                 : Advanced Video Codec
Format profile              : [email protected]
Format settings             : CABAC / 4 Ref Frames
Format settings, CABAC      : Yes
Format settings, Reference  : 4 frames
Codec ID                    : V_MPEG4/ISO/AVC
Duration                    : 1 h 33 min
Bit rate                    : 10.0 Mb/s
Width                       : 1 920 pixels
Height                      : 1 038 pixels
Display aspect ratio        : 1.85:1
Frame rate mode             : Constant
Frame rate                  : 23.976 FPS
Color space                 : YUV
Chroma subsampling          : 4:2:0
Bit depth                   : 8 bits
Scan type                   : Progressive
Bits/(Pixel*Frame)          : 0.209
Stream size                 : 6.57 GiB (96%)
Title                       : Хала / Hala.2019.iNTERNAL.1080p.WEB.H264-AMRAP
Language                    : English
Default                     : Yes
Forced                      : No
Color range                 : Limited
Color primaries             : BT.709
Transfer characteristics    : BT.709
Matrix coefficients         : BT.709

Audio
ID                          : 2
Format                      : AC-3
Format/Info                 : Audio Coding 3
Commercial name             : Dolby Digital
Codec ID                    : A_AC3
Duration                    : 1 h 33 min
Bit rate mode               : Constant
Bit rate                    : 448 kb/s
Channel(s)                  : 6 channels
Channel layout              : L R C LFE Ls Rs
Sampling rate               : 48.0 kHz
Frame rate                  : 31.250 FPS (1536 SPF)
Compression mode            : Lossy
Stream size                 : 301 MiB (4%)
Language                    : English
Service kind                : Complete Main
Default                     : Yes
Forced                      : No

Text #1
ID                          : 3
Format                      : UTF-8
Codec ID                    : S_TEXT/UTF8
Codec ID/Info               : UTF-8 Plain Text
Duration                    : 1 h 33 min
Bit rate                    : 61 b/s
Count of elements           : 943
Stream size                 : 42.1 KiB (0%)
Title                       : Ukr Full [Apple TV+]
Language                    : Ukrainian
Default                     : Yes
Forced                      : Yes

Text #2
ID                          : 4
Format                      : UTF-8
Codec ID                    : S_TEXT/UTF8
Codec ID/Info               : UTF-8 Plain Text
Duration                    : 1 h 24 min
Bit rate                    : 44 b/s
Count of elements           : 919
Stream size                 : 27.6 KiB (0%)
Title                       : Eng Full
Language                    : English
Default                     : No
Forced                      : No

Text #3
ID                          : 5
Format                      : UTF-8
Codec ID                    : S_TEXT/UTF8
Codec ID/Info               : UTF-8 Plain Text
Duration                    : 1 h 27 min
Bit rate                    : 49 b/s
Count of elements           : 1043
Stream size                 : 31.5 KiB (0%)
Title                       : Eng SDH
Language                    : English
Default                     : No
Forced                      : No

Text #4
ID                          : 6
Format                      : UTF-8
Codec ID                    : S_TEXT/UTF8
Codec ID/Info               : UTF-8 Plain Text
Duration                    : 1 h 24 min
Bit rate                    : 14 b/s
Count of elements           : 304
Stream size                 : 8.92 KiB (0%)
Title                       : Eng (forced)
Language                    : English
Default                     : No
Forced                      : No



Джерело: &


Золотий реліз (завантажене не впливає на рейтинг)
 Трекер:    Зареєстрований   

Завантажити / скачати фільм українською



відео для новачків



 Зареєстрований:   2020-01-23 18:57
 Розмір:   6.86 GB 
 Оцінка фільму:   10/10 (Голосів: 3)
 ЗАЛИШАЙТЕСЬ ЯКОМОГА ДОВШЕ НА РОЗДАЧІ! ЗАВАНТАЖИВ САМ - ДАЙ ЗАВАНТАЖИТИ ІНШИМ!
   
Ваш часовий пояс: GMT + 2 Години

Нова тема   Відповісти