Медальйон / The Medallion (2003) 1080p [Open Matte] Ukr/Eng | Sub Eng

Нові коментарі

Нова тема   Відповісти
Автор Повідомлення
MakRA 
VIP


З нами з: 10.11.18
Востаннє: 29.02.20
Повідомлень: 825

2020-01-23 11:32  
Медальйон / The Medallion (2003) 1080p [Open Matte] Ukr/Eng | Sub Eng



Жанр: екшн, комедія, фентезі
Країна: США , Гонконг



Кінокомпанія: Emperor Multimedia Group (EMG), Golden Port Productions Ltd., Living Films
Режисер: Гордон Чан [Gordon Chan]
Актори: Джекі Чан (Jackie Chan), Лі Еванс [Lee Evans], Клер Форлані [Claire Forlani], Джуліан Сендс [Julian Sands], Джон Ріс-Дейвіс [John Rhys-Davies], Ентоні Вонг [Anthony Chau-Sang Wong], Крісті Чанг [Christy Chung], Джоанн Маєрс [Johann Myers]

Сюжет:
Життя гонконгського поліцейського Едді Янга рятує таємничий магічний медальйон. Старовинна прикраса наділяє Едді неймовірною, надлюдською силою, перетворивши в непереможного воїна. Разом зі своєю напарницею Ніколь, Янг намагається розгадати таємницю медальйона ...


Тривалість: 01:28:34
Якість: 1080p Open Matte [Amazon]- має більше наповнення кадру в порівнянні з блуреєм
Відео:
кодек:
розмір кадру: 1920 х 1080
бітрейт: 13,1 Mб/с

Аудіо # 1:
мова: українська
переклад: багатоголосий закадровий
кодек: 2.0
бітрейт: 192 кб/с

Аудіо # 2:
мова: англійська
переклад: оригінал
кодек: E- 5.1
бітрейт: 640 кб/с

Субтитри: (Full)
мова: англійська
тип: програмні (м'які)
формат: *.srt

Збережено оригінальні розділи, як на Blu-ray.
Info
General
Unique ID : 252850140743283308234593202110614233600 (0xBE392A6E979458E37A6B3EF968146200)
Complete name : F:\+ Open Matte Movie Collection\The Medallion (2003) 1080p [Open Matte] UkrEng Sub Eng [Hurtom].
Format :
Format version : Version 4
File size : 8.59 GiB
Duration : 1 h 28 min
Overall bit rate mode : Variable
Overall bit rate : 13.9 Mb/s
Movie name : Медальйон / The Medallion (2003) 1080p [Open Matte] Ukr/Eng | Sub Eng [Hurtom]
Encoded date : UTC 2020-01-22 09:18:54
Writing application : v25.0.0 ('Prog Noir') 64-bit
Writing library : libebml v1.3.6 + v1.4.9
Cover : Yes
Attachments : cover.jpg

Video
ID : 1
Format : AVC
Format/Info : Advanced Video Codec
Format profile : [email protected]
Format settings : CABAC / 4 Ref Frames
Format settings, CABAC : Yes
Format settings, Reference fra : 4 frames
Codec ID : V_MPEG4/ISO/AVC
Duration : 1 h 28 min
Bit rate mode : Variable
Bit rate : 13.1 Mb/s
Maximum bit rate : 15.0 Mb/s
Width : 1 920 pixels
Height : 1 080 pixels
Display aspect ratio : 16:9
Frame rate mode : Constant
Frame rate : 23.976 (24000/1001) FPS
Color space : YUV
Chroma subsampling : 4:2:0
Bit depth : 8 bits
Scan type : Progressive
Bits/(Pixel*Frame) : 0.263
Stream size : 8.08 GiB (94%)
Title : The Medallion (2003) 1080p [Open Matte] Ukr/Eng | Sub Eng [Hurtom]
Language : Ukrainian
Default : Yes
Forced : Yes
Color range : Limited
Color primaries : BT.709
Transfer characteristics : BT.709
Matrix coefficients : BT.709

Audio #1
ID : 2
Format : AC-3
Format/Info : Audio Coding 3
Commercial name : Dolby Digital
Codec ID : A_AC3
Duration : 1 h 28 min
Bit rate mode : Constant
Bit rate : 192 kb/s
Channel(s) : 2 channels
Channel layout : L R
Sampling rate : 48.0 kHz
Frame rate : 31.250 FPS (1536 SPF)
Bit depth : 16 bits
Compression mode : Lossy
Stream size : 122 MiB (1%)
Title : MVO [ІНТЕР] 2.0 | Так Треба Продакшн
Language : Ukrainian
Service kind : Complete Main
Default : Yes
Forced : Yes

Audio #2
ID : 3
Format : E-AC-3
Format/Info : Enhanced AC-3
Commercial name : Dolby Digital Plus
Codec ID : A_EAC3
Duration : 1 h 28 min
Bit rate mode : Constant
Bit rate : 640 kb/s
Channel(s) : 6 channels
Channel layout : L R C LFE Ls Rs
Sampling rate : 48.0 kHz
Frame rate : 31.250 FPS (1536 SPF)
Compression mode : Lossy
Stream size : 405 MiB (5%)
Title : Original E- 5.1
Language : English
Service kind : Complete Main
Default : No
Forced : No

Text
ID : 4
Format : UTF-8
Codec ID : S_TEXT/UTF8
Codec ID/Info : UTF-8 Plain Text
Duration : 1 h 25 min
Bit rate : 34 b/s
Count of elements : 843
Stream size : 21.5 KiB (0%)
Title : Eng (Full)
Language : English
Default : No
Forced : No

Menu
00:00:00.000 : :Start
00:06:53.871 : :The Chosen One
00:10:41.807 : :"You'll Give Me What I Want"
00:17:36.638 : :Sewer Rats
00:20:57.297 : :Sea Horizon
00:24:22.127 : :All Hands on Deck
00:30:28.952 : :Nicole James
00:36:00.783 : :Commander Hammerstock-Smythe
00:42:47.022 : :The Top Man
00:47:40.649 : :Dinner with the Watsons
00:54:13.875 : :Dublin Street Tour
00:59:24.269 : :Under Arrest?
01:04:32.493 : :Trapped in a Container
01:11:55.602 : :The Second Coming of Eddie Yang
01:16:24.079 : :Kidnappers
01:20:10.972 : :The Yang of Steel
01:28:27.051 : :End Credits
Скріншоти
Джерело: &
Висловлюю подяку п. Mr Yuran за звукову доріжку та п. Musketeer за український постер.
Особиста оцінка: 8 - мені сподобалося


Срібний реліз (на рейтинг впливає 50% завантаженого)
 Трекер:    Зареєстрований   

Завантажити / скачати фільм українською



відео для новачків



 Зареєстрований:   2020-01-23 11:32
 Розмір:   8.59 GB 
 Оцінка фільму:   9.9/10 (Голосів: 7)
   
Інші релізи
   Медальйон / The Medallion (2003) Ukr/Eng | Sub Eng kino.  5 / 0   1.63 GB   2013-09-03 16:18 
   Медальйон / The Medallion (2003) 720p Ukr/Eng | Sub Eng Mr Yuran  1 / 0   3.58 GB   2013-07-11 23:09 
Ваш часовий пояс: GMT + 2 Години

Нова тема   Відповісти