Маленька Америка (Сезон 1) / Little America (Season 1) (2020) 720p Eng | sub Ukr/Eng

Нові коментарі

Нова тема   Відповісти
Автор Повідомлення
Anonymous 







2020-01-22 18:39  
Маленька Америка (Сезон 1) / Little America (Season 1) (2020) 720p Eng | sub Ukr/Eng

Маленька Америка (Сезон 1) / Little America (Season 1) (2020) 720p Eng | sub Ukr/Eng


Жанр: драма, комедія, (8-а серія - ЛГБТ)
Країна: США



Кінокомпанія: EPIC Magazine, Universal Television, Apple TV+
Режисер: Сіан Хедер / Sian Heder, Це Чун / Tze Chun, Стівен Данн / Stephen Dunn, Діпа Мехта / Deepa Mehta, Бхарат Наллури / Bharat Nalluri, Німа Нурізаде / Nima Nourizadeh
Актори: Анджела Лін / Angela Lin, Ікс Лі / X. Lee, Джастін Едут / Justin Ahdoot, Маделін Чан / Madeleine Chang, Авріл Лєна Вей / Avril Lena Wei, Мішель Еммон / Michele Ammon, Гілларі Бак / Hillary Baack, Нік Бейлі / Nick Bailey, Санкріш Бала / Sunkrish Bala, Сахар Бібіян / Sahar Bibiyan, Пріянка Бозе / Priyanka Bose, Конфіданс / Conphidance, Закарі Квінто / Zachary Quinto та інші

Сюжет:
Серіал засновано на справжніх історіях реальних людей, опублікованих в журналі Epic Magazine. Смішні, романтичні, дивовижні, зворушливі, надихаючі, огидні - ці історії розповідають про життя іммігрантів в США і як вони намагаються пристосуватися до нового дому, нового суспільства і нового життя.
Офіційний трейлер:


Вікова категорія: 18+

Тривалість: 1 серія: 29 ÷ 34 хв. (цілком серій: 8)
Перелік серій
1. Менеджер / The Manager
2. Ягуар / The Jaguar
3. Ковбой / The Cowboy
4. Мовчанка / The Silence
5. Пекар / The Baker
6. Переможці лотереї / The Grand Expo Winners
7. Камінь / The Rock
8. Син / The Son
Якість: 720p
Відео:
кодек:
розмір кадру: 1320 х 696
бітрейт: ~2800 кб/с

Аудіо:
мова: англійська
переклад: оригінал
кодек: 5.1
бітрейт: 448 кб/с

Субтитри # 1:
мова: українська
тип: програмні (м'які)
формат: *.srt
перекладач: Олена Цехмейструк

Субтитри # 2-4:
мова: англійська (повні, SDH, forced)
тип: програмні (м'які)
формат: *.srt
Info
Код:

Complete name               : S01E01.The Manager.[Eng sub.Ukr,Eng] 720p [Hurtom].
Format                      :
Format version              : Version 4
File size                   : 681 MiB
Duration                    : 29 min 8 s
Overall bit rate            : 3 269 kb/s
Movie name                  : S01E01 Маленька Америка / Little America (2020) [Eng sub.Ukr,Eng] 720p [Hurtom]
Encoded date                : UTC 2020-01-22 16:42:25
Writing application         : v42.0.0 ('Overtime') 64-bit
Writing library             : libebml v1.3.10 + v1.5.2
Cover                       : Yes
Attachments                 : cover.jpg

Video
ID                          : 1
Format                      : AVC
Format/Info                 : Advanced Video Codec
Format profile              : [email protected]
Format settings             : CABAC / 5 Ref Frames
Format settings, CABAC      : Yes
Format settings, Reference  : 5 frames
Codec ID                    : V_MPEG4/ISO/AVC
Duration                    : 29 min 8 s
Bit rate                    : 2 818 kb/s
Width                       : 1 320 pixels
Height                      : 696 pixels
Display aspect ratio        : 1.897
Frame rate mode             : Constant
Frame rate                  : 23.976 (24000/1001) FPS
Color space                 : YUV
Chroma subsampling          : 4:2:0
Bit depth                   : 8 bits
Scan type                   : Progressive
Bits/(Pixel*Frame)          : 0.128
Stream size                 : 587 MiB (86%)
Title                       : Little.America.S01E01.iNTERNAL.720p.WEB.H264-AMRAP
Language                    : English
Default                     : Yes
Forced                      : No
Color range                 : Limited
Color primaries             : BT.709
Transfer characteristics    : BT.709
Matrix coefficients         : BT.709

Audio
ID                          : 2
Format                      : AC-3
Format/Info                 : Audio Coding 3
Commercial name             : Dolby Digital
Codec ID                    : A_AC3
Duration                    : 29 min 8 s
Bit rate mode               : Constant
Bit rate                    : 448 kb/s
Channel(s)                  : 6 channels
Channel layout              : L R C LFE Ls Rs
Sampling rate               : 48.0 kHz
Frame rate                  : 31.250 FPS (1536 SPF)
Compression mode            : Lossy
Stream size                 : 93.4 MiB (14%)
Language                    : English
Service kind                : Complete Main
Default                     : Yes
Forced                      : No

Text #1
ID                          : 3
Format                      : UTF-8
Codec ID                    : S_TEXT/UTF8
Codec ID/Info               : UTF-8 Plain Text
Duration                    : 29 min 0 s
Bit rate                    : 77 b/s
Count of elements           : 393
Stream size                 : 16.5 KiB (0%)
Title                       : Ukr Full [Apple TV+]
Language                    : Ukrainian
Default                     : Yes
Forced                      : Yes

Text #2
ID                          : 4
Format                      : UTF-8
Codec ID                    : S_TEXT/UTF8
Codec ID/Info               : UTF-8 Plain Text
Duration                    : 25 min 33 s
Bit rate                    : 57 b/s
Count of elements           : 378
Stream size                 : 10.8 KiB (0%)
Title                       : English
Language                    : English
Default                     : No
Forced                      : No

Text #3
ID                          : 5
Format                      : UTF-8
Codec ID                    : S_TEXT/UTF8
Codec ID/Info               : UTF-8 Plain Text
Duration                    : 27 min 50 s
Bit rate                    : 62 b/s
Count of elements           : 447
Stream size                 : 12.7 KiB (0%)
Title                       : English  [SDH]
Language                    : English
Default                     : No
Forced                      : No

Text #4
ID                          : 6
Format                      : UTF-8
Codec ID                    : S_TEXT/UTF8
Codec ID/Info               : UTF-8 Plain Text
Duration                    : 22 min 47 s
Bit rate                    : 0 b/s
Count of elements           : 6
Stream size                 : 119 Bytes (0%)
Title                       : English (forced)
Language                    : English
Default                     : No
Forced                      : No



Джерело: &


Бронзовий реліз (на рейтинг впливає 75% завантаженого)
 Трекер:    Зареєстрований   

Завантажити / скачати серіал українською



відео для новачків



 Зареєстрований:   2020-01-22 22:28
 Розмір:   5.78 GB 
 Оцінка серіалу:   7.2/10 (Голосів: 10)
 ЗАЛИШАЙТЕСЬ ЯКОМОГА ДОВШЕ НА РОЗДАЧІ! ЗАВАНТАЖИВ САМ - ДАЙ ЗАВАНТАЖИТИ ІНШИМ!
   
380983801076 
Поважний учасник


З нами з: 30.03.12
Востаннє: 25.02.20
Повідомлень: 168

2020-01-22 18:56  
[офтоп видалено]
VitNi 
Свій


З нами з: 05.05.12
Востаннє: 25.02.20
Повідомлень: 145

2020-01-23 07:47  
[офтоп видалено]
besconst 
Свій


З нами з: 10.03.12
Востаннє: 24.02.20
Повідомлень: 51

2020-01-23 09:01  
[офтоп видалено]
Ваш часовий пояс: GMT + 2 Години

Нова тема   Відповісти