Проект «Синя книга» (Сезон 2) / Project Blue Book (Season 2) (2020) 720p Ukr/Eng

Нові коментарі

Нова тема   Відповісти
Автор Повідомлення
DniproFilm 
VIP


З нами з: 10.10.18
Востаннє: 26.11.20
Повідомлень: 443

2020-01-22 13:18  
Проект «Синя книга» (Сезон 2) / Project Blue Book (Season 2) (2020) 720p Ukr/Eng

Проект «Синя книга» (Сезон 2) / Project Blue Book (Season 2) (2020) 720p Ukr/Eng


Жанр: драма, детектив, наукова фантастика
Країна: США



Кінокомпанія / телеканал: A+E Studios, Compari Entertainment, History Channel, ImageMovers
Режисер: Роберт Стромберг
Актори/ролі озвучують: Ейден Ґіллен, Майкл Маларкі, Лаура Меннелл, Ксенія Соло, Майкл Харні, Ніл МакДонаф, Джилл Моррісон, Хезер Дорксен, Франческа Б'янчі, Джозеф Галлаччіо та інші

Сюжет:
Події розгортаються в 1950-і роки. Проект «Синя книга» - один із серії проектів систематичних досліджень вхідних повідомлень невпізнаних літаючих об'єктів (НЛО), що проводилися ВПС США в середині XX століття. Проектом були зібрані, проаналізовані та вивчені тисячі повідомлень про передбачувані спостереження НЛО.
За сюжетом, астроном Дж. Аллен Хінек і капітан ВПС США Майкл Квінн розбираються зі свідченнями появи НЛО. В ході розслідування вони натикаються на урядову змову, що приховує від населення правду…


Тривалість: 1 серія: ~ 45 хв. (цілком серій: 10)
Перелік серій

1. The Roswell Incident - Part I
2. The Roswell Incident - Part II
3. Area 51
4. Hopkinsville
5. The Men in Black
6. Close Encounters
7. Curse of the Skinwalker
8. What Lies Beneath
9. Broken Arrow
10. Operation Mainbrace
Якість:
Відео:
кодек:
розмір кадру: 1280x640
бітрейт: ~4000 кб/с

Аудіо # 1:
мова: українська
переклад: двоголосий закадровий
кодек: 2.0
бітрейт: 192 кб/с

Аудіо # 2:
мова: англійська
переклад: оригінал
кодек: 2.0
бітрейт: 384 кб/с

Джерело озвучення:
DniproFilm
Info

Video
ID : 1
Format : AVC
Format/Info : Advanced Video Codec
Format profile : [email protected]
Format settings : CABAC / 4 Ref Frames
Format settings, CABAC : Yes
Format settings, Reference : 4 frames
Codec ID : V_MPEG4/ISO/AVC
Duration : 45 min 24 s
Bit rate : 3 937 kb/s
Width : 1 280 pixels
Height : 640 pixels
Display aspect ratio : 2.000
Frame rate mode : Constant
Frame rate : 23.976 (24000/1001) FPS
Color space : YUV
Chroma subsampling : 4:2:0
Bit depth : 8 bits
Scan type : Progressive
Bits/(Pixel*Frame) : 0.200
Stream size : 1.25 GiB (87%)
Language : English
Default : Yes
Forced : No
Color range : Limited
Color primaries : BT.709
Transfer characteristics : BT.709
Matrix coefficients : BT.709

Audio #1
ID : 2
Format : AC-3
Format/Info : Audio Coding 3
Commercial name : Dolby Digital
Codec ID : A_AC3
Duration : 45 min 24 s
Bit rate mode : Constant
Bit rate : 192 kb/s
Channel(s) : 2 channels
Channel layout : L R
Sampling rate : 48.0 kHz
Frame rate : 31.250 FPS (1536 SPF)
Compression mode : Lossy
Stream size : 62.4 MiB (4%)
Title : DniproFilm
Language : Ukrainian
Service kind : Complete Main
Default : Yes
Forced : No

Audio #2
ID : 3
Format : AC-3
Format/Info : Audio Coding 3
Commercial name : Dolby Digital
Codec ID : A_AC3
Duration : 45 min 24 s
Bit rate mode : Constant
Bit rate : 384 kb/s
Channel(s) : 2 channels
Channel layout : L R
Sampling rate : 48.0 kHz
Frame rate : 31.250 FPS (1536 SPF)
Compression mode : Lossy
Stream size : 125 MiB (9%)
Language : English
Service kind : Complete Main
Default : No
Forced : No
Скріншоти







Авторський реліз (завантажувати можна без реєстрації)
 Трекер:    Зареєстрований   

Завантажити / скачати серіал українською



відео для новачків



 Зареєстрований:   2020-03-25 12:10
 Розмір:   13.81 GB 
 Оцінка серіалу:   9.8/10 (Голосів: 19)
   
DniproFilm 
VIP


З нами з: 10.10.18
Востаннє: 26.11.20
Повідомлень: 443

2020-01-29 18:11  
Оновлено. Додано 2 серію.

DniproFilm 
VIP


З нами з: 10.10.18
Востаннє: 26.11.20
Повідомлень: 443

2020-02-05 12:45  
Оновлено. Додано 3 серію.

DniproFilm 
VIP


З нами з: 10.10.18
Востаннє: 26.11.20
Повідомлень: 443

2020-02-12 12:14  
Оновлено. Додано 4 серію.

DniproFilm 
VIP


З нами з: 10.10.18
Востаннє: 26.11.20
Повідомлень: 443

2020-02-19 13:49  
Оновлено. Додано 5 серію.

DniproFilm 
VIP


З нами з: 10.10.18
Востаннє: 26.11.20
Повідомлень: 443

2020-02-26 12:03  
Оновлено. Додано 6 серію.

DniproFilm 
VIP


З нами з: 10.10.18
Востаннє: 26.11.20
Повідомлень: 443

2020-03-04 12:55  
Оновлено. Додано 7 серію.

DniproFilm 
VIP


З нами з: 10.10.18
Востаннє: 26.11.20
Повідомлень: 443

2020-03-11 12:22  
Оновлено. Додано 8 серію.

DniproFilm 
VIP


З нами з: 10.10.18
Востаннє: 26.11.20
Повідомлень: 443

2020-03-18 11:53  
Оновлено. Додано 9 серію.

DniproFilm 
VIP


З нами з: 10.10.18
Востаннє: 26.11.20
Повідомлень: 443

2020-03-25 12:11  
Оновлено. Додано 10 серію (фінал сезону).

Ваш часовий пояс: GMT + 2 Години

Нова тема   Відповісти