Проект «Синя книга» (Сезон 2) / Project Blue Book (Season 2) (2020) 1080p Ukr/Eng

Нові коментарі

Нова тема   Відповісти
Автор Повідомлення
DniproFilm 
VIP


З нами з: 10.10.18
Востаннє: 03.12.20
Повідомлень: 443

2020-01-22 13:18  
Проект «Синя книга» (Сезон 2) / Project Blue Book (Season 2) (2020) 1080p Ukr/Eng

Проект «Синя книга» (Сезон 2) / Project Blue Book (Season 2) (2020) 1080p Ukr/Eng


Жанр: драма, детектив, наукова фантастика
Країна: США



Кінокомпанія / телеканал: A+E Studios, Compari Entertainment, History Channel, ImageMovers
Режисер: Роберт Стромберг
Актори/ролі озвучують: Ейден Ґіллен, Майкл Маларкі, Лаура Меннелл, Ксенія Соло, Майкл Харні, Ніл МакДонаф, Джилл Моррісон, Хезер Дорксен, Франческа Б'янчі, Джозеф Галлаччіо та інші

Сюжет:
Події розгортаються в 1950-і роки. Проект «Синя книга» - один із серії проектів систематичних досліджень вхідних повідомлень невпізнаних літаючих об'єктів (НЛО), що проводилися ВПС США в середині XX століття. Проектом були зібрані, проаналізовані та вивчені тисячі повідомлень про передбачувані спостереження НЛО.
За сюжетом, астроном Дж. Аллен Хінек і капітан ВПС США Майкл Квінн розбираються зі свідченнями появи НЛО. В ході розслідування вони натикаються на урядову змову, що приховує від населення правду…


Тривалість: 1 серія: ~ 45 хв. (цілком серій: 10)
Перелік серій

1. The Roswell Incident - Part I
2. The Roswell Incident - Part II
3. Area 51
4. Hopkinsville
5. The Men in Black
6. Close Encounters
7. Curse of the Skinwalker
8. What Lies Beneath
9. Broken Arrow
10. Operation Mainbrace
Якість:
Відео:
кодек:
розмір кадру: 1920x960
бітрейт: ~7000 кб/с

Аудіо # 1:
мова: українська
переклад: двоголосий закадровий
кодек: 2.0
бітрейт: 192 кб/с

Аудіо # 2:
мова: англійська
переклад: оригінал
кодек: 2.0
бітрейт: 384 кб/с

Джерело озвучення:
DniproFilm
Info

Video
ID : 1
Format : AVC
Format/Info : Advanced Video Codec
Format profile : [email protected]
Format settings : CABAC / 4 Ref Frames
Format settings, CABAC : Yes
Format settings, Reference : 4 frames
Codec ID : V_MPEG4/ISO/AVC
Duration : 45 min 24 s
Bit rate : 6 889 kb/s
Width : 1 920 pixels
Height : 960 pixels
Display aspect ratio : 2.000
Frame rate mode : Constant
Frame rate : 23.976 (24000/1001) FPS
Color space : YUV
Chroma subsampling : 4:2:0
Bit depth : 8 bits
Scan type : Progressive
Bits/(Pixel*Frame) : 0.156
Stream size : 2.19 GiB (92%)
Language : English
Default : Yes
Forced : No
Color range : Limited
Color primaries : BT.709
Transfer characteristics : BT.709
Matrix coefficients : BT.709

Audio #1
ID : 2
Format : AC-3
Format/Info : Audio Coding 3
Commercial name : Dolby Digital
Codec ID : A_AC3
Duration : 45 min 24 s
Bit rate mode : Constant
Bit rate : 192 kb/s
Channel(s) : 2 channels
Channel layout : L R
Sampling rate : 48.0 kHz
Frame rate : 31.250 FPS (1536 SPF)
Compression mode : Lossy
Stream size : 62.4 MiB (3%)
Title : DniproFilm
Language : Ukrainian
Service kind : Complete Main
Default : Yes
Forced : No

Audio #2
ID : 3
Format : AC-3
Format/Info : Audio Coding 3
Commercial name : Dolby Digital
Codec ID : A_AC3
Duration : 45 min 24 s
Bit rate mode : Constant
Bit rate : 384 kb/s
Channel(s) : 2 channels
Channel layout : L R
Sampling rate : 48.0 kHz
Frame rate : 31.250 FPS (1536 SPF)
Compression mode : Lossy
Stream size : 125 MiB (5%)
Language : English
Service kind : Complete Main
Default : No
Forced : No
Скріншоти





Авторський реліз (завантажувати можна без реєстрації)
 Трекер:    Зареєстрований   

Завантажити / скачати серіал українською



відео для новачків



 Зареєстрований:   2020-03-25 12:10
 Розмір:   22.84 GB 
 Оцінка серіалу:   9.8/10 (Голосів: 36)
   
Cartwright 
VIP


З нами з: 23.03.13
Востаннє: 03.12.20
Повідомлень: 395

2020-01-22 15:46  
Дякую! Добре, що ви взялися за другий сезон.
HorosheKino 
Свій


З нами з: 17.10.19
Востаннє: 03.12.20
Повідомлень: 50

2020-01-22 16:15  
Ого! Так швидко! Молодці)
DniproFilm 
VIP


З нами з: 10.10.18
Востаннє: 03.12.20
Повідомлень: 443

2020-01-29 18:11  
Додано 2 серію.

Strider477 
Свій


З нами з: 29.10.11
Востаннє: 03.12.20
Повідомлень: 58

2020-01-29 20:19  
Дякую! Непоганий серіал, він наче сучасні Секретні матеріали)
DniproFilm 
VIP


З нами з: 10.10.18
Востаннє: 03.12.20
Повідомлень: 443

2020-02-05 12:45  
Додано 3 серію.

DniproFilm 
VIP


З нами з: 10.10.18
Востаннє: 03.12.20
Повідомлень: 443

2020-02-12 12:14  
Додано 4 серію.

DniproFilm 
VIP


З нами з: 10.10.18
Востаннє: 03.12.20
Повідомлень: 443

2020-02-19 13:49  
Додано 5 серію.

DniproFilm 
VIP


З нами з: 10.10.18
Востаннє: 03.12.20
Повідомлень: 443

2020-02-26 12:03  
Додано 6 серію.

DniproFilm 
VIP


З нами з: 10.10.18
Востаннє: 03.12.20
Повідомлень: 443

2020-03-04 12:55  
Додано 7 серію.

DniproFilm 
VIP


З нами з: 10.10.18
Востаннє: 03.12.20
Повідомлень: 443

2020-03-11 12:22  
Додано 8 серію.

Cartwright 
VIP


З нами з: 23.03.13
Востаннє: 03.12.20
Повідомлень: 395

2020-03-14 02:33  
7 серія 2 сезону мабуть найкраща за весь серіал. Знята повністю в стилі серіалу "Цілком таємно". Дуже крута серія.
Чи не єдина в сезоні від перегляду якої отримав задоволення. Серіал потребує побільше таких самобутніх серій.

DniproFilm 
VIP


З нами з: 10.10.18
Востаннє: 03.12.20
Повідомлень: 443

2020-03-18 11:53  
Додано 9 серію.

Lyolic 
VIP


З нами з: 04.08.09
Востаннє: 03.12.20
Повідомлень: 568

2020-03-18 18:39  
DniproFilm написано:
Додано 9 серію


7:35 - "2000 миль/сек"

Воно б всю Канаду за 1,5 сек пролетіло б ))) Там кажуть миль/год

DniproFilm 
VIP


З нами з: 10.10.18
Востаннє: 03.12.20
Повідомлень: 443

2020-03-25 12:10  
Додано 10 серію (фінал сезону).

Cartwright 
VIP


З нами з: 23.03.13
Востаннє: 03.12.20
Повідомлень: 395

2020-04-10 00:53  
Оце так остання серія. Як для серіалу, то масштаб вражає. Дивно, що серіал досі не продовжили на третій сезон, рейтинги у нього непогані. Якщо закриють на другому сезоні, то буде прикро. В останніх серіях "Синя книга" все більше нагадує "Цілком таємно". Та і розкрутили сезон під кінець дуже класно.
leicheman 
Відео Гуртом - фільмокрай
Відео Гуртом - фільмокрай


З нами з: 03.07.14
Востаннє: 03.12.20
Повідомлень: 5704

2020-05-07 19:33  
Cartwright написано:
Якщо закриють на другому сезоні, то буде прикро.

таки закрили.

Inter1000 
Новенький


З нами з: 07.02.18
Востаннє: 01.12.20
Повідомлень: 8

2020-05-25 05:33  
Класний серіал! Дуже багато правди було показано. Тому і закрили.(
Ваш часовий пояс: GMT + 2 Години

Нова тема   Відповісти