Священик / Priest (2011) 1080p 1080p H.265 Ukr/Eng | Sub Eng

Нові коментарі

Нова тема   Відповісти
Автор Повідомлення
Anonymous 







2020-01-22 00:16  
Священик / Priest (2011) 1080p 1080p H.265 Ukr/Eng | Sub Eng

Священик / Priest (2011) 1080p 1080p H.265 Ukr/Eng | Sub Eng


Жанр: екшн, жахи, фантастика, трилер.
Країна: США
Кінокомпанія: Buckaroo Entertainment, Michael De Luca Productions, Screen Gems, Stars Road Entertainment, TOKYOPOP; мейджор – Buena Vista Sony Pictures Releasing (BVSPR).
Режисер: Скотт Чарльз Стюарт
Актори: Пол Беттані, Карл Урбан, Кем Гігандет, Меггі К’ю, Лілі Коллінс, Бред Дуріф, Стівен Мойер, Крістофер Пламмер, Алан Дейл, Медкен Емік та ін.

Сюжет:
Пост-апокаліптичний науково-фантастичний трилер. Дія відбувається в альтернативному світі, де століттями триває війна між людьми та вампірами. Сюжет обертається навколо легендарного Воїна Священика, який живе тихим та мирним життям серед звичайних людей. Але коли вампіри викрадають його племінницю, він знову виходить на шлях війни, забувши про свої обітниці та порушуючи усі встановлені правила...

Тривалість: 01:27:27
Якість:

Відео:
кодек: H.265 (HEVC)
розмір кадру: 1920 x 800
бітрейт: 6 557 кб/с
бітова глибина: 10 біт

Увага! Перед завантаженням переконайтесь, що ваш пристрій відтворення (та/або ПЗ) підтримує H.265 (HEVC)

Аудіо # 1:
мова: українська
переклад: професійний дубльований | Студія LeDoyen
кодек: AC-3 5.1
бітрейт: 640 кб/с

Аудіо # 2:
мова: англійська
переклад: оригінал
кодек: 5.1
бітрейт: 1510 кб/с

Аудіо # 3:
мова: англійська
переклад: оригінал | коментарі
кодек: AC-3 2.0
бітрейт: 192 кб/с

Аудіо # 4:
мова: англійська
переклад: оригінал | коментарі
кодек: AC-3 2.0
бітрейт: 192 кб/с

Субтитри # 1: (Full)
мова: англійська
тип: програмні (м'які)
формат: *.srt


Info
Код:
General
Unique ID                                : 240499039785041390234800962784207735472 (0xB4EE6E23AC7D82A9A1D53210B12A8AB0)
Complete name                            : Priest (2011) 1080p H.265 [UKR_ENG] [Hurtom].
Format                                   :
Format version                           : Version 4
File size                                : 5.55 GiB
Duration                                 : 1 h 27 min
Overall bit rate                         : 9 093 kb/s
Movie name                               : Священик / Priest (2011)
Encoded date                             : UTC 2020-01-21 20:58:02
Writing application                      : v20.0.0 ('I Am The Sun') 64-bit
Writing library                          : libebml v1.3.5 + v1.4.8
Cover                                    : Yes
Attachments                              : Cover.jpg

Video
ID                                       : 1
Format                                   : HEVC
Format/Info                              : High Efficiency Video Coding
Format profile                           : Main [email protected]@High
Codec ID                                 : V_MPEGH/ISO/HEVC
Duration                                 : 1 h 27 min
Bit rate                                 : 6 557 kb/s
Width                                    : 1 920 pixels
Height                                   : 800 pixels
Display aspect ratio                     : 2.40:1
Frame rate mode                          : Constant
Frame rate                               : 23.976 (24000/1001) FPS
Color space                              : YUV
Chroma subsampling                       : 4:2:0
Bit depth                                : 10 bits
Bits/(Pixel*Frame)                       : 0.178
Stream size                              : 4.01 GiB (72%)
Title                                    : Священик / Priest (2011)
Writing library                          : x265 2.9+15-81373aab81df:[Windows][GCC 8.2.0][64 bit] 10bit
Encoding settings                        : cpuid=1111039 / frame-threads=3 / numa-pools=12 / wpp / no-pmode / no-pme / no-psnr / no-ssim / log-level=2 / input-csp=1 / input-res=1920x800 / interlace=0 / total-frames=125807 / level-idc=41 / high-tier=1 / uhd-bd=0 / ref=5 / no-allow-non-conformance / no-repeat-headers / annexb / no-aud / no-hrd / info / hash=0 / no-temporal-layers / open-gop / min-keyint=23 / keyint=240 / gop-lookahead=0 / bframes=13 / b-adapt=2 / b-pyramid / bframe-bias=0 / rc-lookahead=80 / lookahead-slices=0 / scenecut=40 / radl=0 / no-splice / no-intra-refresh / ctu=64 / min-cu-size=8 / rect / amp / max-tu-size=32 / tu-inter-depth=4 / tu-intra-depth=4 / limit-tu=1 / rdoq-level=2 / dynamic-rd=0.00 / no-ssim-rd / signhide / no-tskip / nr-intra=0 / nr-inter=0 / no-constrained-intra / no-strong-intra-smoothing / max-merge=5 / limit-refs=3 / limit-modes / me=3 / subme=7 / merange=57 / temporal-mvp / weightp / weightb / no-analyze-src-pics / deblock=-3:-3 / no-sao / no-sao-non-deblock / rd=6 / no-early-skip / rskip / no-fast-intra / no-tskip-fast / no-cu-lossless / b-intra / no-splitrd-skip / rdpenalty=0 / psy-rd=2.00 / psy-rdoq=1.00 / no-rd-refine / no-lossless / cbqpoffs=0 / crqpoffs=0 / rc=crf / crf=19.9 / qcomp=0.70 / qpstep=4 / stats-write=0 / stats-read=0 / vbv-maxrate=50000 / vbv-bufsize=50000 / vbv-init=0.9 / crf-max=0.0 / crf-min=0.0 / ipratio=1.40 / pbratio=1.30 / aq-mode=2 / aq-strength=0.80 / no-cutree / zone-count=1 / zones: / start-frame=117619 / end-frame=125800 / qp=36 / no-strict-cbr / qg-size=32 / no-rc-grain / qpmax=69 / qpmin=0 / no-const-vbv / sar=1 / overscan=0 / videoformat=5 / range=0 / colorprim=2 / transfer=2 / colormatrix=2 / chromaloc=0 / display-window=0 / max-cll=0,0 / min-luma=0 / max-luma=1023 / log2-max-poc-lsb=8 / vui-timing-info / vui-hrd-info / slices=1 / no-opt-qp-pps / no-opt-ref-list-length-pps / no-multi-pass-opt-rps / scenecut-bias=0.00 / no-opt-cu-delta-qp / no-aq-motion / no-hdr / no-hdr-opt / no-dhdr10-opt / no-idr-recovery-sei / analysis-reuse-level=5 / scale-factor=0 / refine-intra=0 / refine-inter=0 / refine-mv=0 / no-limit-sao / ctu-info=0 / no-lowpass-dct / refine-mv-type=0 / copy-pic=1 / max-ausize-factor=1.0 / no-dynamic-refine / no-single-sei
Language                                 : English
Default                                  : Yes
Forced                                   : No

Audio #1
ID                                       : 2
Format                                   : AC-3
Format/Info                              : Audio Coding 3
Commercial name                          : Dolby Digital
Codec ID                                 : A_AC3
Duration                                 : 1 h 27 min
Bit rate mode                            : Constant
Bit rate                                 : 640 kb/s
Channel(s)                               : 6 channels
Channel layout                           : L R C LFE Ls Rs
Sampling rate                            : 48.0 kHz
Frame rate                               : 31.250 FPS (1536 SPF)
Bit depth                                : 16 bits
Compression mode                         : Lossy
Stream size                              : 400 MiB (7%)
Title                                    : / 5.1 Ch / 640 kbps / ПД / Студія LeDoyen
Language                                 : Ukrainian
Service kind                             : Complete Main
Default                                  : Yes
Forced                                   : Yes

Audio #2
ID                                       : 3
Format                                   :
Format/Info                              : Digital Theater Systems
Codec ID                                 : A_DTS
Duration                                 : 1 h 27 min
Bit rate mode                            : Constant
Bit rate                                 : 1 509 kb/s
Channel(s)                               : 6 channels
Channel layout                           : C L R Ls Rs LFE
Sampling rate                            : 48.0 kHz
Frame rate                               : 93.750 FPS (512 SPF)
Bit depth                                : 24 bits
Compression mode                         : Lossy
Stream size                              : 944 MiB (17%)
Title                                    : / 5.1 Ch / 1509 kbps / Original
Language                                 : English
Default                                  : No
Forced                                   : No

Audio #3
ID                                       : 4
Format                                   : AC-3
Format/Info                              : Audio Coding 3
Commercial name                          : Dolby Digital
Codec ID                                 : A_AC3
Duration                                 : 1 h 27 min
Bit rate mode                            : Constant
Bit rate                                 : 192 kb/s
Channel(s)                               : 2 channels
Channel layout                           : L R
Sampling rate                            : 48.0 kHz
Frame rate                               : 31.250 FPS (1536 SPF)
Bit depth                                : 16 bits
Compression mode                         : Lossy
Stream size                              : 120 MiB (2%)
Title                                    : / 2.0 Ch / 192 kbps / Commentary
Language                                 : English
Service kind                             : Complete Main
Default                                  : No
Forced                                   : No

Audio #4
ID                                       : 5
Format                                   : AC-3
Format/Info                              : Audio Coding 3
Commercial name                          : Dolby Digital
Codec ID                                 : A_AC3
Duration                                 : 1 h 27 min
Bit rate mode                            : Constant
Bit rate                                 : 192 kb/s
Channel(s)                               : 2 channels
Channel layout                           : L R
Sampling rate                            : 48.0 kHz
Frame rate                               : 31.250 FPS (1536 SPF)
Bit depth                                : 16 bits
Compression mode                         : Lossy
Stream size                              : 120 MiB (2%)
Title                                    : / 2.0 Ch / 192 kbps / Descriptive
Language                                 : English
Service kind                             : Complete Main
Default                                  : No
Forced                                   : No

Text
ID                                       : 6
Format                                   : UTF-8
Codec ID                                 : S_TEXT/UTF8
Codec ID/Info                            : UTF-8 Plain Text
Duration                                 : 1 h 19 min
Bit rate                                 : 34 b/s
Count of elements                        : 529
Stream size                              : 20.3 KiB (0%)
Title                                    : Full
Language                                 : English
Default                                  : No
Forced                                   : No

Menu
00:00:00.000                             : en:Man and Vampires
00:04:20.885                             : en:Attack on the Ranch
00:10:34.967                             : en:Loosing Faith
00:14:21.652                             : en:Leaving the City Walls
00:19:09.314                             : en:Honest John's Medicine Show
00:24:47.110                             : en:Dispatching the Priests
00:29:03.992                             : en:Nightshade Reservation
00:35:08.564                             : en:Compensation
00:40:40.729                             : en:Hive Guardian
00:45:47.202                             : en:Bred a New Army
00:51:14.613                             : en:Jericho
00:56:55.161                             : en:Salvation
01:01:53.376                             : en:Catching the Train
01:04:39.750                             : en:The Blood of the Queen
01:10:01.238                             : en:Carriage to Carriage
01:13:56.849                             : en:Explosive Game of Chicken
01:20:09.474                             : en:End Credits
Світлини




Джерело: &
Особиста оцінка: 0 - не дивився


 Трекер:    Зареєстрований   

Завантажити / скачати фільм українською



відео для новачків



 Зареєстрований:   2020-01-22 00:16
 Розмір:   5.55 GB 
 Оцінка фільму:   9.5/10 (Голосів: 6)
   
Інші релізи
   Священик / Priest (2011) 720p Ukr/Eng | Sub Eng staf777  1 / 0   3.98 GB   2020-01-24 12:11 
   Священик / Priest (2011) AVC Ukr/Eng | Sub Eng Sando7  2 / 0   2.18 GB   2019-07-06 20:37 
   Священик / Priest (2011) Remux 1080p Ukr/Eng | Sub Eng staf777  2 / 0   16.86 GB   2018-02-22 12:33 
   Священик / Priest (2011) 1080p Ukr/Eng | Sub Eng staf777  3 / 0   9.42 GB   2017-01-19 12:13 
   Священик / Priest (2011) patriot2305  3 / 0   1.46 GB   2014-02-07 14:58 
   Священик / Priest (2011) 1080p Ukr/Eng (3D) [Half OverUnder] famous37  0 / 0   5.66 GB   2013-12-07 19:56 
   Священик / Priest (2011) 720p Zeus62  0 / 0   4.29 GB   2011-09-03 14:06 
   Священик / Priest (2011) 720p-mini Drool  2 / 0   1.53 GB   2011-07-24 02:39 
   Священик / Priest (2011) DVD5 akon111  1 / 0   3.75 GB   2011-06-04 13:52 
Ваш часовий пояс: GMT + 2 Години

Нова тема   Відповісти