Принц-жабеня (Король-жабеня) / Der Froschkönig (2008) 720p 2xUkr/Ger

Нові коментарі

Нова тема   Відповісти
Автор Повідомлення
Anonymous 







2020-01-21 01:32  
Принц-жабеня (Король-жабеня) / Der Froschkönig (2008) 720p 2xUkr/Ger

Принц-жабеня (Король-жабеня) / Der Froschkönig (2008) 720p 2xUkr/Ger
DVD




Жанр: сімейний, казка, романтичний
Країна: Німеччина



Кінокомпанія: Bavaria Filmverleih- und Produktions GmbH, Südwestrundfunk (SWR)
Режисер: Франциска Бух
Актори: Марі-Луіза Шталь, Яніна Штопер, Йохана Лайнен, Джонатан Брек, Роланд Шрегльман, Константин Хохкеппель

Сюжет:
Казка братів Грімм "Король-жабеня". Якось прекрасна принцеса пішла до ставка пограти зі своїм золотим м'ячиком. Випадково м'ячик впав у ставок і потонув. Допомогти засмученій дівчині зголосилось жабеня, що живе у ставку, яке отримало натомість обіцянку дружити з ним. Принцеса і подумати не могла, що жабеня з'явиться до палацу і вимагатиме виконання обіцянки, адже мало якій дівчині буде приємним спілкування з таким другом...


Тривалість: 00:58:45
Якість:
Відео:
кодек:
розмір кадру: 1280 х 720
бітрейт: 4254 кб/с

Аудіо # 1:
мова: українська
переклад: багатоголосий закадровий - ТЕТ (Перекладено як Принц-жабеня)
кодек: 2.0
бітрейт: 192 кб/с

Аудіо # 2:
мова: українська
переклад: двоголосий закадровий - Новий канал (Перекладено як Король-жабеня)
кодек: 2.0
бітрейт: 192 кб/с

Аудіо # 3:
мова: німецька
переклад: оригінал
кодек: 2.0
бітрейт: 192 кб/с
Info
Код:
General
Unique ID                                : 148086143101725400700232640379572451293 (0x6F685A8E5DDC87D5E2B7FF111D43F7DD)
Complete name                            : Der Froschkönig (2008) 720p [2xUkr_Ger] [Hurtom].
Format                                   :
Format version                           : Version 4
File size                                : 1.98 GiB
Duration                                 : 58 min 45 s
Overall bit rate                         : 4 825 kb/s
Movie name                               : Король-жабеня (2008)
Encoded date                             : UTC 2020-01-20 19:35:24
Writing application                      : v37.0.0 ('Leave It') 32-bit
Writing library                          : libebml v1.3.9 + v1.5.2
Cover                                    : Yes
Attachments                              : cover.jpg

Video
ID                                       : 1
Format                                   : AVC
Format/Info                              : Advanced Video Codec
Format profile                           : [email protected]
Format settings                          : CABAC / 5 Ref Frames
Format settings, CABAC                   : Yes
Format settings, ReFrames                : 5 frames
Codec ID                                 : V_MPEG4/ISO/AVC
Duration                                 : 58 min 39 s
Bit rate                                 : 4 254 kb/s
Width                                    : 1 280 pixels
Height                                   : 720 pixels
Display aspect ratio                     : 16:9
Frame rate mode                          : Constant
Frame rate                               : 25.000 FPS
Color space                              : YUV
Chroma subsampling                       : 4:2:0
Bit depth                                : 8 bits
Scan type                                : Progressive
Bits/(Pixel*Frame)                       : 0.185
Stream size                              : 1.74 GiB (88%)
Writing library                          : core 128 r2216 198a7ea
Encoding settings                        : cabac=1 / ref=5 / deblock=1:0:0 / analyse=0x3:0x113 / me=umh / subme=7 / psy=1 / psy_rd=1.00:0.00 / mixed_ref=1 / me_range=16 / chroma_me=1 / trellis=1 / 8x8dct=1 / cqm=0 / deadzone=21,11 / fast_pskip=0 / chroma_qp_offset=-2 / threads=3 / lookahead_threads=1 / sliced_threads=0 / nr=0 / decimate=1 / interlaced=0 / bluray_compat=0 / constrained_intra=0 / bframes=3 / b_pyramid=2 / b_adapt=1 / b_bias=0 / direct=1 / weightb=1 / open_gop=0 / weightp=2 / keyint=250 / keyint_min=25 / scenecut=40 / intra_refresh=0 / rc_lookahead=40 / rc=crf / mbtree=1 / crf=20.0 / qcomp=0.60 / qpmin=0 / qpmax=69 / qpstep=4 / ip_ratio=1.40 / aq=1:1.00
Language                                 : German
Default                                  : Yes
Forced                                   : No

Audio #1
ID                                       : 2
Format                                   : AC-3
Format/Info                              : Audio Coding 3
Commercial name                          : Dolby Digital
Codec ID                                 : A_AC3
Duration                                 : 58 min 45 s
Bit rate mode                            : Constant
Bit rate                                 : 192 kb/s
Channel(s)                               : 2 channels
Channel layout                           : L R
Sampling rate                            : 48.0 kHz
Frame rate                               : 31.250 FPS (1536 SPF)
Bit depth                                : 16 bits
Compression mode                         : Lossy
Stream size                              : 80.7 MiB (4%)
Title                                    : ТЕТ
Language                                 : Ukrainian
Service kind                             : Complete Main
Default                                  : Yes
Forced                                   : Yes

Audio #2
ID                                       : 3
Format                                   : AC-3
Format/Info                              : Audio Coding 3
Commercial name                          : Dolby Digital
Codec ID                                 : A_AC3
Duration                                 : 58 min 45 s
Bit rate mode                            : Constant
Bit rate                                 : 192 kb/s
Channel(s)                               : 2 channels
Channel layout                           : L R
Sampling rate                            : 48.0 kHz
Frame rate                               : 31.250 FPS (1536 SPF)
Bit depth                                : 16 bits
Compression mode                         : Lossy
Stream size                              : 80.7 MiB (4%)
Title                                    : Новий канал
Language                                 : Ukrainian
Service kind                             : Complete Main
Default                                  : No
Forced                                   : No

Audio #3
ID                                       : 4
Format                                   : AC-3
Format/Info                              : Audio Coding 3
Commercial name                          : Dolby Digital
Codec ID                                 : A_AC3
Duration                                 : 58 min 45 s
Bit rate mode                            : Constant
Bit rate                                 : 192 kb/s
Channel(s)                               : 2 channels
Channel layout                           : L R
Sampling rate                            : 48.0 kHz
Frame rate                               : 31.250 FPS (1536 SPF)
Bit depth                                : 16 bits
Compression mode                         : Lossy
Stream size                              : 80.7 MiB (4%)
Language                                 : German
Service kind                             : Complete Main
Default                                  : No
Forced                                   : No

Скріншоти





Джерело:
Звук взято з релізу + обробка


 Трекер:    Зареєстрований   

Завантажити / скачати фільм українською



відео для новачків



 Зареєстрований:   2020-01-21 01:32
 Розмір:   1.98 GB 
 Оцінка фільму:   9/10 (Голосів: 6)
   
Ваш часовий пояс: GMT + 2 Години

Нова тема   Відповісти