Красуня і чудовисько / Die Schöne und das Biest (2012) 720p Ukr/Ger

Нові коментарі

Нова тема   Відповісти
Автор Повідомлення
Anonymous 







2020-01-20 18:55  
Красуня і чудовисько / Die Schöne und das Biest (2012) 720p Ukr/Ger

Красуня і чудовисько / Die Schöne und das Biest (2012) 720p Ukr/Ger
DVD



Жанр: сімейний, казка, романтичний
Країна: Німеччина, Австрія



Кінокомпанія: Zweites Deutsches Fernsehen (ZDF), Provobis Gesellschaft für Film und Fernsehen, Moviepool
Режисер: Марк-Андреас Бохерт
Актори: Корнелія Грьошель, Максиміліан Сімонішек Юрген Таррах, Крістоф Летковскі, Карстен Крамер, Надіна Вріц, Вольфганг Едельмайер, Йоханнес Зільбершнайдер, Вольфганг С. Цехмайєр

Сюжет:
У шинкаря Гуго великі проблеми – він на межі розорення. Його єдина розрада – прекрасна дочка Ельза. Коли Гуго в пошуках грошей знаходить притулок в таємничому замку, доля готує йому несподіване випробування: зірвавши в саду троянду для Ельзи, шинкар раптом бачить перед собою Чудовисько – наполовину людину, наполовину звіра. Господар замку вимагає в якості розплати життя. Гуго вимолює собі прощення, але Чудовисько ставить йому умову – шинкар повинен доставити в замок першу живу істоту, яка зустріниться в рідному домі. Гуго думає, що це буде його собака, але першою зустрічною виявляється улюблена дочка, і тепер вона повинна виплатити борг батька.


Тривалість: 01:28:38
Якість:
Відео:
кодек:
розмір кадру: 1280 х 718
бітрейт: 3500 кб/с

Аудіо # 1:
мова: українська
переклад: професійний дубльований
кодек: 2.0
бітрейт: 192 кб/с

Аудіо # 2:
мова: німецька
переклад: оригінал
кодек: 2.0
бітрейт: 192 кб/с

Джерело озвучення:
Info
Код:
General
Unique ID                                : 288910590591570478019513992348511029947 (0xD95A27E05A204320300F4F3C0370CABB)
Complete name                            : Die Schöne und das Biest (2012) 720p [Ukr_Ger] [Hurtom].
Format                                   :
Format version                           : Version 4
File size                                : 2.41 GiB
Duration                                 : 1 h 28 min
Overall bit rate                         : 3 887 kb/s
Movie name                               : Красуня і чудовисько (2012)
Encoded date                             : UTC 2020-01-20 15:29:45
Writing application                      : v37.0.0 ('Leave It') 32-bit
Writing library                          : libebml v1.3.9 + v1.5.2
Cover                                    : Yes
Attachments                              : cover.jpg

Video
ID                                       : 1
Format                                   : AVC
Format/Info                              : Advanced Video Codec
Format profile                           : [email protected]
Format settings                          : CABAC / 9 Ref Frames
Format settings, CABAC                   : Yes
Format settings, ReFrames                : 9 frames
Codec ID                                 : V_MPEG4/ISO/AVC
Duration                                 : 1 h 28 min
Bit rate                                 : 3 500 kb/s
Width                                    : 1 280 pixels
Height                                   : 718 pixels
Display aspect ratio                     : 16:9
Frame rate mode                          : Constant
Frame rate                               : 25.000 FPS
Color space                              : YUV
Chroma subsampling                       : 4:2:0
Bit depth                                : 8 bits
Scan type                                : Progressive
Bits/(Pixel*Frame)                       : 0.152
Stream size                              : 2.17 GiB (90%)
Writing library                          : core 152 r2851bm ba24899
Encoding settings                        : cabac=1 / ref=9 / deblock=1:-1:-1 / analyse=0x3:0x133 / me=umh / subme=10 / psy=1 / psy_rd=1.00:0.15 / mixed_ref=1 / me_range=24 / chroma_me=1 / trellis=2 / 8x8dct=1 / cqm=0 / deadzone=21,11 / fast_pskip=1 / chroma_qp_offset=-3 / threads=12 / lookahead_threads=2 / sliced_threads=0 / nr=0 / decimate=1 / interlaced=0 / bluray_compat=0 / constrained_intra=0 / bframes=8 / b_pyramid=2 / b_adapt=2 / b_bias=0 / direct=3 / weightb=1 / open_gop=0 / weightp=2 / keyint=250 / keyint_min=25 / scenecut=40 / intra_refresh=0 / rc_lookahead=60 / rc=2pass / mbtree=1 / bitrate=3500 / ratetol=1.0 / qcomp=0.60 / qpmin=0 / qpmax=69 / qpstep=4 / cplxblur=20.0 / qblur=0.5 / ip_ratio=1.40 / aq=1:1.00
Language                                 : German
Default                                  : Yes
Forced                                   : No

Audio #1
ID                                       : 2
Format                                   : AC-3
Format/Info                              : Audio Coding 3
Commercial name                          : Dolby Digital
Codec ID                                 : A_AC3
Duration                                 : 1 h 28 min
Bit rate mode                            : Constant
Bit rate                                 : 192 kb/s
Channel(s)                               : 2 channels
Channel layout                           : L R
Sampling rate                            : 48.0 kHz
Frame rate                               : 31.250 FPS (1536 SPF)
Bit depth                                : 16 bits
Compression mode                         : Lossy
Stream size                              : 122 MiB (5%)
Language                                 : Ukrainian
Service kind                             : Complete Main
Default                                  : Yes
Forced                                   : Yes

Audio #2
ID                                       : 3
Format                                   : AC-3
Format/Info                              : Audio Coding 3
Commercial name                          : Dolby Digital
Codec ID                                 : A_AC3
Duration                                 : 1 h 28 min
Bit rate mode                            : Constant
Bit rate                                 : 192 kb/s
Channel(s)                               : 2 channels
Channel layout                           : L R
Sampling rate                            : 48.0 kHz
Frame rate                               : 31.250 FPS (1536 SPF)
Bit depth                                : 16 bits
Compression mode                         : Lossy
Stream size                              : 122 MiB (5%)
Language                                 : German
Service kind                             : Complete Main
Default                                  : No
Forced                                   : No

Скріншоти





Джерело:


 Трекер:    Зареєстрований   

Завантажити / скачати фільм українською



відео для новачків



 Зареєстрований:   2020-01-20 18:55
 Розмір:   2.41 GB 
 Оцінка фільму:   9.9/10 (Голосів: 8)
   
Alukret 
Свій


З нами з: 11.06.14
Востаннє: 25.09.20
Повідомлень: 74

2020-08-31 20:09  
Чудове кіно, дякую!
Ваш часовий пояс: GMT + 2 Години

Нова тема   Відповісти