Атомікрон / Atomicron (Сезон 1, 11 серій з 26) (2015) 1080p Ukr/Eng

Нові коментарі

Нова тема   Відповісти
Автор Повідомлення
sergiyko.5 
VIP


З нами з: 25.02.16
Востаннє: 07.04.20
Повідомлень: 3029

2020-01-19 17:20  
Атомікрон / Atomicron (Сезон 1) (2015) 1080p Ukr/Eng


Атомікрон / Atomicron (Сезон 1, 11 серій з 26) (2015) 1080p Ukr/Eng

Жанр: пригоди
Країна: Італія
Кінокомпанія: Giochi Preziosi, MEG Entertainment Group, Mondo TV
Режисер: Орландо Корраді

Сюжет:
13 мільярдів років тому величезний вибух створив весь Всесвіт. У цю мить народилися зірки, планети і галактики. Але поза центром Всесвіту є щось? Центром Всесвіту є точка контакту між світом матерії та світом Аніматерії, межа між добром і злом !! Ця точка приховує найбільшу таємницю космосу: мікроскопічні атоми.




Тривалість: 1 серія: 13:00 (цілком серій: 11 з 26)
Якість:

Відео: кодек: розмір кадру: 1920 х 1080 бітрейт: 3500 кб/с
Аудіо # 1: мова: українська переклад: багатоголосий закадровий кодек: MP2 2.0 бітрейт: 160 кб/с
Озвучення: КІТ
Аудіо # 2: мова: англійська переклад: оригінал кодек: 2.0 бітрейт: 128 кб/с

Примітка: українська доріжка записана з супутникової трансляції і синхронізована під відео, звук не розтягувався і не змінювався темп.
Перелік серій
02.Dark Matter
03.The Atomicron Alliance
04.One Against The Other
05.The Anti Substance World
6.The Missing Planet
07.Chaos' Order
08.Infernal Trap
09.Galacticor Ultimatum
10.The AM Prototype
11.Past Memories
12.Xenon' Siege
Про файл:
General
Unique ID : 260393479409883123795197128421633400356 (0xC3E5F5BE18495258404F6614D0039E24)
Complete name : D:\Documents\Torrents\MULTSER_2\Atomicron S01 1080p \S01E02.Dark Matter.1080p..
Format :
Format version : Version 4
File size : 354 MiB
Duration : 13 min 0 s
Overall bit rate : 3 803 kb/s
Movie name : Atomicron S01 1080p by sergiyko
Encoded date : UTC 2020-01-19 14:17:09
Writing application : v42.0.0 ('Overtime') 64-bit
Writing library : libebml v1.3.10 + v1.5.2

Video
ID : 1
Format : AVC
Format/Info : Advanced Video Codec
Format profile : [email protected]
Format settings : CABAC / 2 Ref Frames
Format settings, CABAC : Yes
Format settings, Reference : 2 frames
Codec ID : V_MPEG4/ISO/AVC
Duration : 12 min 59 s
Bit rate : 3 483 kb/s
Width : 1 920 pixels
Height : 1 080 pixels
Display aspect ratio : 16:9
Frame rate mode : Constant
Frame rate : 25.000 FPS
Color space : YUV
Chroma subsampling : 4:2:0
Bit depth : 8 bits
Scan type : Progressive
Bits/(Pixel*Frame) : 0.067
Stream size : 324 MiB (92%)
Language : English
Default : Yes
Forced : No
Color range : Limited
Color primaries : BT.709
Transfer characteristics : BT.709
Matrix coefficients : BT.709

Audio #1
ID : 2
Format : MPEG Audio
Format version : Version 1
Format profile : Layer 2
Codec ID : A_MPEG/L2
Codec ID/Hint : MP2
Duration : 12 min 59 s
Bit rate mode : Constant
Bit rate : 192 kb/s
Channel(s) : 2 channels
Sampling rate : 48.0 kHz
Frame rate : 41.667 FPS (1152 SPF)
Compression mode : Lossy
Stream size : 17.9 MiB (5%)
Language : Ukrainian
Default : Yes
Forced : Yes

Audio #2
ID : 3
Format : LC
Format/Info : Advanced Audio Codec Low Complexity
Codec ID : A_AAC-2
Duration : 13 min 0 s
Bit rate : 126 kb/s
Channel(s) : 2 channels
Channel layout : L R
Sampling rate : 44.1 kHz
Frame rate : 43.066 FPS (1024 SPF)
Compression mode : Lossy
Stream size : 11.7 MiB (3%)
Language : English
Default : No
Forced : No
Скріншоти:


Запис/зведення: sergiyko


Бронзовий реліз (на рейтинг впливає 75% завантаженого)
 Трекер:    Зареєстрований   

Завантажити / скачати мультфільм українською



відео для новачків



 Зареєстрований:   2020-01-19 17:20
 Розмір:   3.65 GB 
 Оцінка мультсеріалу:   10/10 (Голосів: 5)
   
midnight_man 
Свій


З нами з: 13.10.09
Востаннє: 06.04.20
Повідомлень: 70

2020-01-23 10:06  
Це що, аналог трансформерів?
Captain de La Fer 
Новенький


З нами з: 11.07.19
Востаннє: 17.02.20
Повідомлень: 3

2020-02-16 22:51  
Немає першої серії в роздачі

midnight_man
midnight_man написано:
Це що, аналог трансформерів?


Те ж саме питання. За рівнем мультсеріал (по перших серіх) не на рівні тф, нижчий рангом та простіший, але дуже гарний дизайн персонажів. Приємно дивитися.

Ваш часовий пояс: GMT + 2 Години

Нова тема   Відповісти