Вампірина / Vampirina (Сезон 2) (2018) HDTV 1080i

Нові коментарі

Нова тема   Відповісти
Останній раз роздавалося sergiyko.5 (2020-11-26)
Автор Повідомлення
sergiyko.5 
Забанено
Забанено


З нами з: 25.02.16
Востаннє: 29.10.20
Повідомлень: 3648

2020-01-19 12:57  
Всі одноіменні релізи на трекері

Вампірина / Vampirina (Сезон 2) (2018) HDTV 1080i


Вампірина / Vampirina (Сезон 2) (2018) HDTV 1080i

Жанр: мультфільм, мюзикл, сімейний, фентезі
Країна: США, Ірландія
Режисер: Ехуд Ландсберг, Мартін Джонмарк, Ніккі Фелан
Актори: Лорен Грем, Ізабелла Крамп, Джордан Алекса Девіс, Ванда Сайкс, Мітчел Вітфілд

Сюжет:
Мультфільм розповідає про юну дівчинку по імені Вампірина, яка стикається з радощами і випробуваннями, коли її родина переїжджає з Трансільванії в Пенсільванію. Тепер її сім'я є власниками готелю для чарівних створінь, де дівчинку-вампіршу чекає багато непередбачуваних і незвичайних пригод. Вампірина виявляється в новому для себе світі - світі людей, де з подивом знаходить в ньому багато подібностей з рідним світом вампірів.




Тривалість: 1 серія: 23:00 (цілком серій: 25 з 25)
Якість: HDTV

Відео: кодек: розмір кадру: 1920 х 1080 бітрейт: ~ 4300 кб/с
Аудіо: мова: українська переклад: професійний дубльований кодек: 2.0 бітрейт: 192 кб/с
Озвучення:

Примітка: українська доріжка записана з супутникової трансляції і синхронізована під HD відео, звук не розтягувався і не змінювався тон.
Перелік серій
01 Vampire for President-Where's Wolfie
02 The Woodsie Way-TNN
03 Franken-Wedding-Bat Hair Day
04 Baby Dragon-Gloomates
05 The Ghoul Next Door-The Scare B and Vee
06 The Birthday Broom-Vee Takes The Court
07 Scare-itage Day-The Great Egg Scramble
08 Desserter Mystery-Mirror Mirror
09 Beach Night-Gregoria Takes Flight
10 The Big Bite-Ghost Hosts
11 The Boo Boys Are Back-Pixie Problem
12 Face the Music-Fright at the Museum
13 Vamp-iversary-The Wolf Boy
14 Bat Got Your Tongue-The Haunted Theater
15 Trick or Treaters-Play It Again Vee
16 Jumping Jack-o-Lanterns-Freeze Our Guest
17 The Vamp-Opera-This Haunted House Is Closed
18 Day of the Dead-As You Wish
19 The Scare Council-Taking Scare of Business
20 Hauntley Girls-The Not So Haunted House
21 A Gargoyle Carol-Deliver-eeek
22 The Great Esmeralda-Frog's Breath
23 Oh Brother-The Search for Bigfoot
24 Au Revoir Remy-The School Scare Fair
25 Ghoul Guides Save the Day
Про файл:
General
Unique ID : 100319158417761014418652566236539296983 (0x4B78C461ED57C74BDE05AF95605E9CD7)
Complete name : D:\Documents\Torrents\MULTSER_2\Vampirina S02 HDTV 1080p\S02E20.The Hauntley Girls-The Not So Haunted House.1080p.HDTV.
Format :
Format version : Version 4
File size : 741 MiB
Duration : 23 min 2 s
Overall bit rate : 4 497 kb/s
Movie name : Vampirina S02 HDTV 1080p by sergiyko
Encoded date : UTC 2020-01-19 09:46:24
Writing application : v42.0.0 ('Overtime') 64-bit
Writing library : libebml v1.3.10 + v1.5.2

Video
ID : 1
Format : AVC
Format/Info : Advanced Video Codec
Format profile : [email protected]
Format settings : CABAC / 3 Ref Frames
Format settings, CABAC : Yes
Format settings, Reference : 3 frames
Codec ID : V_MPEG4/ISO/AVC
Duration : 23 min 2 s
Bit rate : 4 303 kb/s
Width : 1 920 pixels
Height : 1 080 pixels
Display aspect ratio : 16:9
Frame rate mode : Constant
Frame rate : 25.000 FPS
Color space : YUV
Chroma subsampling : 4:2:0
Bit depth : 8 bits
Scan type : MBAFF
Scan type, store method : Interleaved fields
Scan order : Top Field First
Bits/(Pixel*Frame) : 0.083
Stream size : 709 MiB (96%)
Title : S02E20.The Hauntley Girls-The Not So Haunted House
Language : English
Default : Yes
Forced : No

Audio
ID : 2
Format : AC-3
Format/Info : Audio Coding 3
Commercial name : Dolby Digital
Codec ID : A_AC3
Duration : 23 min 2 s
Bit rate mode : Constant
Bit rate : 192 kb/s
Channel(s) : 2 channels
Channel layout : L R
Sampling rate : 48.0 kHz
Frame rate : 31.250 FPS (1536 SPF)
Compression mode : Lossy
Delay relative to video : -120 ms
Stream size : 31.6 MiB (4%)
Title : ПлюсПлюс
Language : Ukrainian
Service kind : Complete Main
Default : Yes
Forced : No
Скріншоти:


Запис/зведення: sergiyko


Бронзовий реліз (на рейтинг впливає 75% завантаженого)
 Трекер:    Зареєстрований   

Завантажити / скачати мультфільм українською



відео для новачків



 Зареєстрований:   2020-09-30 20:41
 Розмір:   17.88 GB 
 Оцінка мультсеріалу:   10/10 (Голосів: 8)
   
XKiRKX 
Свій


З нами з: 04.11.08
Востаннє: 05.04.21
Повідомлень: 146

2020-03-12 10:51  
Дякую! Чи будуть решта серій ?
sergiyko.5 
Забанено
Забанено


З нами з: 25.02.16
Востаннє: 29.10.20
Повідомлень: 3648

2020-03-12 10:55  
Канал припинив трансляцію цього серіалу, зараз немає можливості писати якісне відео.
sergiyko.5 
Забанено
Забанено


З нами з: 25.02.16
Востаннє: 29.10.20
Повідомлень: 3648

2020-09-30 20:42  
Додав серії до повного сезону. Приємного перегляду!
Ваш часовий пояс: GMT + 2 Години

Нова тема   Відповісти