Мадонна - Признання на танцполі (бонус) (2005) | Pop 720р

Нові коментарі

Нова тема   Відповісти
Автор Повідомлення
11994455 
Попереджень: 1
Попереджень: 1 


З нами з: 07.04.14
Востаннє: 26.05.20
Повідомлень: 526

2020-01-19 12:43  
Мадонна - Признання на танцполі (бонус) (2005) | Pop 720р

Мадонна - Признання на танцполі (бонус) (2005) | Pop 720р


Стиль: Pop
Країна, місто: США
Виконавці: Мадонна
Кліпи до альбому Мадонни: https://toloka.to/t103762
Субтитри:
мова: українська
тип: srt
1.Hung-Up

Тривалість: 00:05:27
Якість:
Відео:
кодек:
розмір кадру: 960 х 720
бітрейт: 1 757 кб/с

Аудіо:
мова: англійська
кодек: 2.0
бітрейт: 192 кб/с
Info

General
Unique ID : 245887126440590542941540226007237097316 (0xB8FC2352567F73E89B543795EB1F7764)
Complete name : E:\+++\+\hd\Madonna\Madonna\1.Madonna - Hung Up (HD 720p).
Format :
Format version : Version 4 / Version 2
File size : 76.1 MiB
Duration : 5 min 27 s
Overall bit rate : 1 951 kb/s
Encoded date : UTC 2018-08-04 19:46:07
Writing application : v8.8.0 ('Wind at my back') 64bit
Writing library : libebml v1.3.3 + v1.4.4

Video
ID : 1
Format : AVC
Format/Info : Advanced Video Codec
Format profile : [email protected]
Format settings : CABAC / 1 Ref Frames
Format settings, CABAC : Yes
Format settings, ReFrames : 1 frame
Codec ID : V_MPEG4/ISO/AVC
Duration : 5 min 27 s
Bit rate : 1 757 kb/s
Width : 960 pixels
Height : 720 pixels
Display aspect ratio : 4:3
Frame rate mode : Constant
Frame rate : 25.000 FPS
Color space : YUV
Chroma subsampling : 4:2:0
Bit depth : 8 bits
Scan type : Progressive
Bits/(Pixel*Frame) : 0.102
Stream size : 68.5 MiB (90%)
Default : Yes
Forced : No

Audio
ID : 2
Format :
Format/Info : Advanced Audio Codec
Format profile : LC
Codec ID : A_AAC-2
Duration : 5 min 27 s
Bit rate : 192 kb/s
Channel(s) : 2 channels
Channel positions : Front: L R
Sampling rate : 44.1 kHz
Frame rate : 43.066 FPS (1024 SPF)
Compression mode : Lossy
Stream size : 7.49 MiB (10%)
Default : Yes
Forced : No

Text
ID : 3
Format : UTF-8
Codec ID : S_TEXT/UTF8
Codec ID/Info : UTF-8 Plain Text
Duration : 5 min 21 s
Bit rate : 111 b/s
Count of elements : 69
Stream size : 4.38 KiB (0%)
Default : Yes
Forced : No
Скріншоти


2.Get Together

Тривалість: 00:03:58
Якість:
Відео:
кодек:
розмір кадру: 1280 х 720
бітрейт: 3 579 кб/с

Аудіо:
мова: англійська
кодек: 2.0
бітрейт: 128 кб/с
Info

General
Unique ID : 231974219033185661592684227650695988381 (0xAE849C06A19CBA12B4221B3B3C9C049D)
Complete name : E:\+++\+\hd\Madonna\Madonna\2.Madonna - Get Together (Official Music Video).
Format :
Format version : Version 4 / Version 2
File size : 105 MiB
Duration : 3 min 58 s
Overall bit rate : 3 709 kb/s
Encoded date : UTC 2020-01-04 18:42:38
Writing application : v8.9.0 ('Father Daughter') 32bit
Writing library : libebml v1.3.3 + v1.4.4

Video
ID : 1
Format : AVC
Format/Info : Advanced Video Codec
Format profile : [email protected]
Format settings : 1 Ref Frames
Format settings, CABAC : No
Format settings, ReFrames : 1 frame
Codec ID : V_MPEG4/ISO/AVC
Duration : 3 min 58 s
Bit rate : 3 574 kb/s
Width : 1 280 pixels
Height : 720 pixels
Display aspect ratio : 16:9
Frame rate mode : Constant
Frame rate : 29.970 (29970/1000) FPS
Color space : YUV
Chroma subsampling : 4:2:0
Bit depth : 8 bits
Scan type : Progressive
Bits/(Pixel*Frame) : 0.129
Stream size : 102 MiB (96%)
Writing library : core 148 r2643 5c65704
Encoding settings : cabac=0 / ref=1 / deblock=1:0:0 / analyse=0x1:0x111 / me=hex / subme=7 / psy=1 / psy_rd=1.00:0.00 / mixed_ref=0 / me_range=16 / chroma_me=1 / trellis=1 / 8x8dct=0 / cqm=0 / deadzone=21,11 / fast_pskip=1 / chroma_qp_offset=-2 / threads=3 / lookahead_threads=1 / sliced_threads=0 / nr=0 / decimate=1 / interlaced=0 / bluray_compat=0 / constrained_intra=0 / bframes=0 / weightp=0 / keyint=250 / keyint_min=25 / scenecut=40 / intra_refresh=0 / rc_lookahead=40 / rc=abr / mbtree=1 / bitrate=3574 / ratetol=1.0 / qcomp=0.60 / qpmin=10 / qpmax=51 / qpstep=4 / ip_ratio=1.41 / aq=1:1.00
Language : English
Default : Yes
Forced : No

Audio
ID : 2
Format :
Format/Info : Advanced Audio Codec
Format profile : LC
Codec ID : A_AAC-2
Duration : 3 min 58 s
Bit rate : 128 kb/s
Channel(s) : 2 channels
Channel positions : Front: L R
Sampling rate : 48.0 kHz
Frame rate : 46.875 FPS (1024 SPF)
Compression mode : Lossy
Delay relative to video : -21 ms
Stream size : 3.64 MiB (3%)
Language : English
Default : Yes
Forced : No

Text
ID : 3
Format : UTF-8
Codec ID : S_TEXT/UTF8
Codec ID/Info : UTF-8 Plain Text
Duration : 3 min 56 s
Bit rate : 125 b/s
Count of elements : 46
Stream size : 3.64 KiB (0%)
Default : Yes
Forced : No
Скріншоти


3.Sorry

Тривалість: 00:04:43
Якість:
Відео:
кодек:
розмір кадру: 960 х 720
бітрейт: 2 403 кб/с

Аудіо:
мова: англійська
кодек: 2.0
бітрейт: 192 кб/с
Info

General
Unique ID : 233574575168487821010240561352564171513 (0xAFB8D3ACDD4AF68E87245B05564E62F9)
Complete name : E:\+++\+\hd\Madonna\Madonna\3.Madonna - Sorry (HD 720p).
Format :
Format version : Version 4 / Version 2
File size : 87.6 MiB
Duration : 4 min 42 s
Overall bit rate : 2 598 kb/s
Encoded date : UTC 2018-08-15 20:17:05
Writing application : v8.8.0 ('Wind at my back') 64bit
Writing library : libebml v1.3.3 + v1.4.4

Video
ID : 1
Format : AVC
Format/Info : Advanced Video Codec
Format profile : [email protected]
Format settings : CABAC / 1 Ref Frames
Format settings, CABAC : Yes
Format settings, ReFrames : 1 frame
Format settings, GOP : M=1, N=60
Codec ID : V_MPEG4/ISO/AVC
Duration : 4 min 42 s
Bit rate : 2 403 kb/s
Width : 960 pixels
Height : 720 pixels
Display aspect ratio : 4:3
Frame rate mode : Constant
Frame rate : 25.000 FPS
Color space : YUV
Chroma subsampling : 4:2:0
Bit depth : 8 bits
Scan type : Progressive
Bits/(Pixel*Frame) : 0.139
Stream size : 81.0 MiB (93%)
Default : Yes
Forced : No

Audio
ID : 2
Format :
Format/Info : Advanced Audio Codec
Format profile : LC
Codec ID : A_AAC-2
Duration : 4 min 42 s
Bit rate : 192 kb/s
Channel(s) : 2 channels
Channel positions : Front: L R
Sampling rate : 44.1 kHz
Frame rate : 43.066 FPS (1024 SPF)
Compression mode : Lossy
Stream size : 6.47 MiB (7%)
Default : Yes
Forced : No

Text
ID : 3
Format : UTF-8
Codec ID : S_TEXT/UTF8
Codec ID/Info : UTF-8 Plain Text
Duration : 4 min 39 s
Bit rate : 134 b/s
Count of elements : 53
Stream size : 4.58 KiB (0%)
Default : Yes
Forced : No
Скріншоти


4.Forbidden Love

Тривалість: 00:04:21
Якість:
Відео:
кодек:
розмір кадру: 1280 х 720
бітрейт: 3 595 кб/с

Аудіо:
мова: англійська
кодек: 2.0
бітрейт: 132 кб/с
Info

General
Unique ID : 173138000289931052466504805710106341230 (0x82412A7A309F737E84CEE77CBF022F6E)
Complete name : E:\+++\+\hd\Madonna\Madonna\4.Madonna - Forbidden Love (Music Video).
Format :
Format version : Version 4 / Version 2
File size : 116 MiB
Duration : 4 min 20 s
Overall bit rate : 3 727 kb/s
Encoded date : UTC 2020-01-04 18:43:02
Writing application : v8.9.0 ('Father Daughter') 32bit
Writing library : libebml v1.3.3 + v1.4.4

Video
ID : 1
Format : AVC
Format/Info : Advanced Video Codec
Format profile : [email protected]
Format settings : 1 Ref Frames
Format settings, CABAC : No
Format settings, ReFrames : 1 frame
Codec ID : V_MPEG4/ISO/AVC
Duration : 4 min 20 s
Bit rate : 3 578 kb/s
Width : 1 280 pixels
Height : 720 pixels
Display aspect ratio : 16:9
Frame rate mode : Constant
Frame rate : 30.000 FPS
Color space : YUV
Chroma subsampling : 4:2:0
Bit depth : 8 bits
Scan type : Progressive
Bits/(Pixel*Frame) : 0.129
Stream size : 112 MiB (96%)
Writing library : core 148 r2643 5c65704
Encoding settings : cabac=0 / ref=1 / deblock=1:0:0 / analyse=0x1:0x111 / me=hex / subme=7 / psy=1 / psy_rd=1.00:0.00 / mixed_ref=0 / me_range=16 / chroma_me=1 / trellis=1 / 8x8dct=0 / cqm=0 / deadzone=21,11 / fast_pskip=1 / chroma_qp_offset=-2 / threads=3 / lookahead_threads=1 / sliced_threads=0 / nr=0 / decimate=1 / interlaced=0 / bluray_compat=0 / constrained_intra=0 / bframes=0 / weightp=0 / keyint=250 / keyint_min=25 / scenecut=40 / intra_refresh=0 / rc_lookahead=40 / rc=abr / mbtree=1 / bitrate=3578 / ratetol=1.0 / qcomp=0.60 / qpmin=10 / qpmax=51 / qpstep=4 / ip_ratio=1.41 / aq=1:1.00
Language : English
Default : Yes
Forced : No

Audio
ID : 2
Format :
Format/Info : Advanced Audio Codec
Format profile : LC
Codec ID : A_AAC-2
Duration : 4 min 20 s
Bit rate : 132 kb/s
Channel(s) : 2 channels
Channel positions : Front: L R
Sampling rate : 48.0 kHz
Frame rate : 46.875 FPS (1024 SPF)
Compression mode : Lossy
Delay relative to video : -21 ms
Stream size : 4.03 MiB (3%)
Language : English
Default : Yes
Forced : No

Text
ID : 3
Format : UTF-8
Codec ID : S_TEXT/UTF8
Codec ID/Info : UTF-8 Plain Text
Duration : 4 min 20 s
Bit rate : 119 b/s
Count of elements : 35
Stream size : 3.81 KiB (0%)
Default : Yes
Forced : No
Скріншоти




 Трекер:    Зареєстрований   

Завантажити / скачати кліп українською



відео для новачків



 Зареєстрований:   2020-01-19 13:17
 Розмір:   385 MB 
 Оцінка кліпу:   7/10 (Голосів: 3)
   
jaral 
Забанено
Забанено


З нами з: 18.10.07
Востаннє: 21.01.20
Повідомлень: 978

2020-01-19 22:18  
Це точно українська музика й українською мовою?
11994455 
Попереджень: 1
Попереджень: 1 


З нами з: 07.04.14
Востаннє: 26.05.20
Повідомлень: 526

2020-01-20 00:51  
Саби українські....
11FrYkT 
Модератор відео


З нами з: 20.02.11
Востаннє: 27.05.20
Повідомлень: 6880

2020-02-23 12:35  
11994455 написано:
| Pop

720р

11994455 написано:

Субтитри:
мова: українська

опишіть формат і ти і бажано під параметрами відео

Замініть скріншоти у форматі пнг та додайте звіти медіаінфо

Ваш часовий пояс: GMT + 2 Години

Нова тема   Відповісти