Браян Бенкс / Brian Banks (2018) 720p Eng | Sub Ukr/Eng

Нові коментарі

Нова тема   Відповісти
Автор Повідомлення
Anonymous 







2020-01-19 00:43  
Браян Бенкс / Brian Banks (2018) 720p Eng | Sub Ukr/Eng

Браян Бенкс / Brian Banks (2018) 720p Eng | Sub Ukr/Eng
Оригінальні постери:





Жанр: біографічний, драма, спорт
Країна: США



Кінокомпанія: ShivHans Pictures, Gidden Media
Режисер: Том Шедьяк / Tom Shadyac
Актори: Елдіс Ходж / Aldis Hodge, Грег Кіннер / Greg Kinnear, Тіффані Дюпон / Tiffany Dupont, Шеррі Шеперд / Sherri Shepherd, Метт Батталья / Matt Battaglia, Соша Рокемор / Xosha Roquemore, Джино Венто / Gino Vento, Доріан Міссік / Dorian Missick, Мелані Лібірд / Melanie Liburd, Місті Сміт / Mystie Smith, Дженніфер Пірс Матус / Jennifer Pierce Mathus, Мері Фолкнер / Mary Faulkner, Терсді Фаррар / Thursday Farrar, Елізабет Дональдсон / Elisabeth Donaldson, Кевін Ямада / Kevin Yamada, Морган Фрімен / Morgan Freeman та інші

Сюжет:
Фільм засновано на надихаючій реальній історії, "Браян Бенкс" - це хроніка життя зірки шкільного американського футболу (Елдіс Ходж), що готувався стати професійним футбольним гравцем, коли його помилково звинуватили у злочині, якого він не скоював, та засудили до 10 років ув'язнення. Завдяки Джастіну Бруксу (Грег Кіннер) та проекту «Невинні Каліфорнії», Бенкс бореться, щоб очистити власне ім'я та втілити свою мрію грати в НФЛ.
Офіційний трейлер:


Рейтинг MPAA: PG-13 - дітям до 13 років перегляд не бажаний
Вікова категорія: 12+

Тривалість: 01:39:45
Якість: 720p

Відео:
кодек:
розмір кадру: 1280х536
бітрейт: 4762 кб/с

Аудіо:
мова: англійська
переклад: оригінал
кодек: 5.1
бітрейт: 448 кб/с

Субтитри # 1:
мова: українська
тип: програмні (м'які)
формат: *.srt
перекладач: Володимир Фатун

Субтитри # 2:
мова: англійська
тип: програмні (м'які)
формат: *.srt

Збережено оригінальні розділи, як на Blu-ray
Info
Код:

Complete name               : Brian Banks (2018) [Eng sub.Ukr,Eng] 720p [Hurtom].
Format                      :
Format version              : Version 4
File size                   : 3.63 GiB
Duration                    : 1 h 39 min
Overall bit rate            : 5 209 kb/s
Movie name                  : Браян Бенкс / Brian Banks (2018) [Eng sub.Ukr,Eng] 720p [Hurtom]
Encoded date                : UTC 2020-01-18 21:09:45
Writing application         : v42.0.0 ('Overtime') 64-bit
Writing library             : libebml v1.3.10 + v1.5.2
Cover                       : Yes
Attachments                 : cover.jpg

Video
ID                          : 1
Format                      : AVC
Format/Info                 : Advanced Video Codec
Format profile              : [email protected]
Format settings             : CABAC / 5 Ref Frames
Format settings, CABAC      : Yes
Format settings, Reference  : 5 frames
Codec ID                    : V_MPEG4/ISO/AVC
Duration                    : 1 h 39 min
Bit rate                    : 4 762 kb/s
Width                       : 1 280 pixels
Height                      : 536 pixels
Display aspect ratio        : 2.40:1
Frame rate mode             : Constant
Frame rate                  : 23.976 (24000/1001) FPS
Color space                 : YUV
Chroma subsampling          : 4:2:0
Bit depth                   : 8 bits
Scan type                   : Progressive
Bits/(Pixel*Frame)          : 0.289
Stream size                 : 3.32 GiB (91%)
Title                       : Браян Бенкс / Brian Banks (2018) 720p [GECKOS]
Writing library             : core 158 r2984 3759fcb
Encoding settings           : cabac=1 / ref=5 / deblock=1:-3:-3 / analyse=0x3:0x113 / me=umh / subme=8 / psy=1 / psy_rd=1.00:0.00 / mixed_ref=1 / me_range=16 / chroma_me=1 / trellis=1 / 8x8dct=1 / cqm=0 / deadzone=21,11 / fast_pskip=1 / chroma_qp_offset=-2 / threads=17 / lookahead_threads=2 / sliced_threads=0 / nr=0 / decimate=1 / interlaced=0 / bluray_compat=0 / constrained_intra=0 / bframes=3 / b_pyramid=2 / b_adapt=1 / b_bias=0 / direct=3 / weightb=1 / open_gop=0 / weightp=2 / keyint=250 / keyint_min=23 / scenecut=40 / intra_refresh=0 / rc_lookahead=50 / rc=2pass / mbtree=1 / bitrate=4762 / ratetol=1.0 / qcomp=0.60 / qpmin=0 / qpmax=69 / qpstep=4 / cplxblur=20.0 / qblur=0.5 / ip_ratio=1.40 / aq=1:1.00
Language                    : English
Default                     : Yes
Forced                      : No

Audio
ID                          : 2
Format                      : AC-3
Format/Info                 : Audio Coding 3
Commercial name             : Dolby Digital
Codec ID                    : A_AC3
Duration                    : 1 h 39 min
Bit rate mode               : Constant
Bit rate                    : 448 kb/s
Channel(s)                  : 6 channels
Channel layout              : L R C LFE Ls Rs
Sampling rate               : 48.0 kHz
Frame rate                  : 31.250 FPS (1536 SPF)
Compression mode            : Lossy
Stream size                 : 320 MiB (9%)
Title                       : Original, 5.1 448 Kbps
Language                    : English
Service kind                : Complete Main
Default                     : Yes
Forced                      : No

Text #1
ID                          : 3
Format                      : UTF-8
Codec ID                    : S_TEXT/UTF8
Codec ID/Info               : UTF-8 Plain Text
Duration                    : 1 h 38 min
Bit rate                    : 107 b/s
Count of elements           : 1307
Stream size                 : 77.9 KiB (0%)
Title                       : Ukr Full [iTunes]
Language                    : Ukrainian
Default                     : Yes
Forced                      : Yes

Text #2
ID                          : 4
Format                      : UTF-8
Codec ID                    : S_TEXT/UTF8
Codec ID/Info               : UTF-8 Plain Text
Duration                    : 1 h 33 min
Bit rate                    : 80 b/s
Count of elements           : 1466
Stream size                 : 55.6 KiB (0%)
Title                       : Eng Full
Language                    : English
Default                     : No
Forced                      : No

Menu
00:00:00.000                : en:00:00:00.000
00:05:49.182                : en:00:05:49.182
00:10:11.528                : en:00:10:11.528
00:14:00.965                : en:00:14:00.965
00:20:07.039                : en:00:20:07.039
00:25:57.055                : en:00:25:57.055
00:30:17.107                : en:00:30:17.107
00:34:03.291                : en:00:34:03.291
00:40:58.498                : en:00:40:58.498
00:45:15.671                : en:00:45:15.671
00:50:08.214                : en:00:50:08.214
00:55:01.131                : en:00:55:01.131
01:00:45.600                : en:01:00:45.600
01:04:00.795                : en:01:04:00.795
01:10:26.347                : en:01:10:26.347
01:14:43.396                : en:01:14:43.396
01:17:11.627                : en:01:17:11.627
01:24:14.925                : en:01:24:14.925
01:29:24.734                : en:01:29:24.734
01:35:00.528                : en:01:35:00.528


Джерело: &


 Трекер:    Зареєстрований   

Завантажити / скачати фільм українською



відео для новачків



 Зареєстрований:   2020-01-19 00:43
 Розмір:   3.63 GB 
 Оцінка фільму:   9.8/10 (Голосів: 5)
 ЗАЛИШАЙТЕСЬ ЯКОМОГА ДОВШЕ НА РОЗДАЧІ! ЗАВАНТАЖИВ САМ - ДАЙ ЗАВАНТАЖИТИ ІНШИМ!
   
Ваш часовий пояс: GMT + 2 Години

Нова тема   Відповісти