Dronny Darko & RNGMNN - Sector Hydra (2019) [] (Hi-Res stereo)| Dark Ambient / Drone

Нові коментарі

Нова тема   Відповісти
Автор Повідомлення
kolpavel 
VIP


З нами з: 04.05.14
Востаннє: 17.04.21
Повідомлень: 1398

2020-01-17 23:27  
Dronny Darko & RNGMNN - Sector Hydra (2019) [] (Hi-Res stereo)| Dark Ambient / Drone

Dronny Darko & RNGMNN - Sector Hydra (2019) [] (Hi-Res stereo)| Dark Ambient / Drone


Стиль: Dark Ambient
Країна, місто: Україна, Київ / Нiмеччина, Берлiн.
Видавець: Cryo Chamber
Виконавці:
Dronny Darko - Олег Пузан.
RNGMNN - Ronny Engmann.
Пісні:
    01 - Emission - 08:59
    02 - Scorched - 06:24
    03 - The Engine Room - 10:15
    04 - Sector Hydra - 10:00
    05 - Incubation - 05:36
    06 - Dissipation - 07:40
    07 - Departure Probe - 09:29

Тривалість: 00:58:25
Мова: українська
Аудіо-кодек:
Бітрейт: 1121 - 1435 кб/с
Джерело: трекер
Додаткова інформація:
динамічний діапазон
foobar2000 1.2.5 / Замер динамического диапазона (DR) 1.1.1
Дата отчёта: 2019-10-27 13:44:09

--------------------------------------------------------------------------------
Анализ: Dronny Darko & RNGMNN / Sector Hydra
--------------------------------------------------------------------------------

DR Пики RMS Продолжительность трека
--------------------------------------------------------------------------------
DR10 -1.25 дБ -14.52 дБ 9:00 01-Emission
DR12 -1.25 дБ -16.00 дБ 6:24 02-Scorched
DR11 -1.25 дБ -14.67 дБ 10:16 03-The Engine Room
DR11 -1.25 дБ -16.09 дБ 10:00 04-Sector Hydra
DR11 -1.25 дБ -14.55 дБ 5:36 05-Incubation
DR9 -1.25 дБ -13.85 дБ 7:41 06-Dissipation
DR10 -2.00 дБ -14.15 дБ 9:29 07-Departure Probe
--------------------------------------------------------------------------------

Количество треков: 7
Реальные значения DR: DR11

Частота: 44100 Гц
Каналов: 2
Разрядность: 24
Битрейт: 1150 кбит/с
Кодек:
================================================================================


Якщо Ви справді бажаєте підтримати українське - після прослуховування, якщо музика вам сподобалась, придбайте ліцензійний диск. Підтримаймо вітчизняних виконавців!


Срібний реліз (на рейтинг впливає 50% завантаженого)
 Трекер:    Зареєстрований   

Завантажити / скачати українську музику



відео для новачків



 Зареєстрований:   2020-01-17 23:27
 Розмір:   522 MB 
 Оцінка музики:   8.7/10 (Голосів: 7)
   
kolpavel 
VIP


З нами з: 04.05.14
Востаннє: 17.04.21
Повідомлень: 1398

2020-01-17 23:28  
https://toloka.to/t104420 Dronny Darko & RNGMNN - Sector Hydra (2019) []
Ваш часовий пояс: GMT + 2 Години

Нова тема   Відповісти