[збір коштів] Чому жінки вбивають (Сезон 1, серії 1-7) / Why Women Kill (Season 1, episodes 1-7) (2019) 1080p Ukr/Eng

Нові коментарі

Нова тема   Відповісти
Автор Повідомлення
Цікава ідея 
VIP


З нами з: 26.12.11
Востаннє: 11.07.20
Повідомлень: 516

2020-01-17 20:58  
AVC | 1080p

[збір коштів] Чому жінки вбивають (Сезон 1, серії 1-7) / Why Women Kill (Season 1, episodes 1-7) (2019) 1080p Ukr/Eng


На озвучення серіалу проходить ЗБІР КОШТІВ


[збір коштів] Чому жінки вбивають (Сезон 1, серії 1-7) / Why Women Kill (Season 1, episodes 1-7) (2019) 1080p Ukr/Eng


На озвучення серіалу проходить ЗБІР КОШТІВ


Жанр: комедія, кримінальний, драма
Країна: США



Кінокомпанія / телеканал: CBS
Режисери/творці: Марк Черрі
Актори: Люсі Лью, Джинніфер Гудвін, Кірбі Гауелл-Батист, Александра Даддаріо, Сем Джагер, Седі Кальвано, Рейд Скотт, Джек Девенпорт та інші.

Сюжет:
Серіал розповідає про трьох жінок, які в різний час живуть в тому самому приватному будинку в Пасадені (штат Каліфорнія) і стикаються з подружньою невірністю. У 1963 році Бет Енн Стентон насолоджується життям щасливої домогосподарки, поки не дізнається про інтрижку чоловіка з офіціанткою. У 1984 році світська левиця Симона Гроув виявляє, що її третій чоловік є гомосексуалістом, і сама заводить роман з молодим хлопцем. У 2019 адвокат Тейлор Хардінг проходить перевірку стосунків, коли вона і її чоловік Ілай відчувають потяг до однієї і тієї ж жінки. У кожному шлюбі невірність стає точкою відліку подій, які призводять до вбивств.


Український трейлер в нашому озвученні!


Якщо не працює, то ТИЦЬ СЮДИ


Тривалість: 1 серія: ~ 50 хв. (цілком серій: 7/10)
Перелік серій:

01. Murder Means Never Having to Say You're Sorry
02. I'd Like to Kill Ya, But I Just Washed my Hair
03. I Killed Everyone He Did, But Backwards and in High Heels
04. You Had Me at Homicide
05. There's No Crying in Murder
06. Practically Lethal in Every Way
07. I Found Out What the Secret to Murder Is: Friends. Best Friends.
08. Marriages Don't Break Up on Account of Murder - It's Just a Symptom That Something Else Is Wrong
09. I Was Just Wondering What Makes Dames Like You So Deadly
10. Kill Me As If It Were the Last Time
Якість: 1080p
Відео:
кодек:
розмір кадру: 1920 x 1080
бітрейт: ~ 9000 кб/с

Аудіо # 1:
мова: українська | "Цікава Ідея"
переклад: професійний багатоголосий закадровий
кодек: 5.1
бітрейт: 448 кб/с

Аудіо # 2:
мова: англійська
переклад: оригінал
кодек: E- 5.1
бітрейт: 640 кб/с
Info
Код:
Format                      :
Format version              : Version 4
File size                   : 3.24 GiB
Duration                    : 49 min 57 s
Overall bit rate mode       : Constant
Overall bit rate            : 9 292 kb/s
Encoded date                : UTC 2019-11-08 16:13:50
Writing application         : v6.8.0 ('Theme for Great Cities') 32bit built on Mar  2 2014 21:27:07
Writing library             : libebml v1.3.0 + v1.4.1

Video
ID                          : 1
Format                      : AVC
Format/Info                 : Advanced Video Codec
Format profile              : [email protected]
Format settings             : CABAC / 4 Ref Frames
Format settings, CABAC      : Yes
Format settings, Reference  : 4 frames
Codec ID                    : V_MPEG4/ISO/AVC
Duration                    : 49 min 57 s
Bit rate mode               : Constant
Bit rate                    : 8 019 kb/s
Nominal bit rate            : 10 000 kb/s
Width                       : 1 920 pixels
Height                      : 1 080 pixels
Display aspect ratio        : 16:9
Frame rate mode             : Constant
Frame rate                  : 24.000 FPS
Color space                 : YUV
Chroma subsampling          : 4:2:0
Bit depth                   : 8 bits
Scan type                   : Progressive
Bits/(Pixel*Frame)          : 0.161
Stream size                 : 2.80 GiB (86%)
Default                     : Yes
Forced                      : No
Color range                 : Limited
Color primaries             : BT.709
Transfer characteristics    : BT.709
Matrix coefficients         : BT.709

Audio #1
ID                          : 2
Format                      : AC-3
Format/Info                 : Audio Coding 3
Commercial name             : Dolby Digital
Codec ID                    : A_AC3
Duration                    : 49 min 57 s
Bit rate mode               : Constant
Bit rate                    : 448 kb/s
Channel(s)                  : 6 channels
Channel layout              : L R C LFE Ls Rs
Sampling rate               : 48.0 kHz
Frame rate                  : 31.250 FPS (1536 SPF)
Bit depth                   : 16 bits
Compression mode            : Lossy
Stream size                 : 160 MiB (5%)
Title                       : Українська
Language                    : Ukrainian
Service kind                : Complete Main
Default                     : Yes
Forced                      : No

Audio #2
ID                          : 3
Format                      : E-AC-3
Format/Info                 : Enhanced AC-3
Commercial name             : Dolby Digital Plus
Codec ID                    : A_EAC3
Duration                    : 49 min 57 s
Bit rate mode               : Constant
Bit rate                    : 640 kb/s
Channel(s)                  : 6 channels
Channel layout              : L R C LFE Ls Rs
Sampling rate               : 48.0 kHz
Frame rate                  : 31.250 FPS (1536 SPF)
Compression mode            : Lossy
Stream size                 : 229 MiB (7%)
Language                    : English
Service kind                : Complete Main
Default                     : No
Forced                      : No
Скріншоти



Озвучено творчим об'єднанням:
Ролі озвучили: Євген Малуха, Семен Птаха, Ольга Мотрич, Юлія Малахова та Олексій Сафін.




Авторський реліз (завантажувати можна без реєстрації)
 Трекер:    Зареєстрований   

Завантажити / скачати серіал українською



відео для новачків



 Зареєстрований:   2020-06-23 14:40
 Розмір:   21.47 GB 
 Оцінка серіалу:   9.8/10 (Голосів: 14)
 Переклали та озвучили 7 серію.
   
Цікава ідея 
VIP


З нами з: 26.12.11
Востаннє: 11.07.20
Повідомлень: 516

2020-01-17 21:06  
Друзі, ми переклали та озвучили 4-ту серію.
Ви можете долучитися до озвучення та підтримати нас!
Реквізити доступні на сайті: https://cikava-ideya.top/
Бажаємо всім приємного перегляду!

AnubiS 
VIP


З нами з: 10.05.09
Востаннє: 10.07.20
Повідомлень: 379

2020-01-18 19:03  
Дякую )
Веселий серіал )

Цікава ідея 
VIP


З нами з: 26.12.11
Востаннє: 11.07.20
Повідомлень: 516

2020-01-22 22:01  
Перезведено та замінено звук до 1-4 серій.
Ви можете долучитися до озвучення та підтримати нас!
Реквізити доступні на сайті: https://cikava-ideya.top/
Бажаємо всім приємного перегляду.


Ми вже працюємо над наступними серіями!

Цікава ідея 
VIP


З нами з: 26.12.11
Востаннє: 11.07.20
Повідомлень: 516

2020-01-24 19:12  
Друзі, ми переклали та озвучили 5-ту серію.
Ви можете долучитися до озвучення та підтримати нас!
Реквізити доступні на сайті: https://cikava-ideya.top/
Бажаємо всім приємного перегляду!

Цікава ідея 
VIP


З нами з: 26.12.11
Востаннє: 11.07.20
Повідомлень: 516

2020-04-13 18:37  
Друзі, ми переклали та озвучили 6 серію!
Підтримайте озвучення наступних серій,
реквізити в описі релізу!


Бажаємо всім приємного перегляду!

Цікава ідея 
VIP


З нами з: 26.12.11
Востаннє: 11.07.20
Повідомлень: 516

2020-06-23 14:41  
Друзі, ми переклали та озвучили 7 серію!
Підтримайте озвучення наступних серій,
реквізити в описі релізу!


Бажаємо всім приємного перегляду!

Ваш часовий пояс: GMT + 2 Години

Нова тема   Відповісти