Близькі контакти третього виду (роду | ступеня) [Режисерська версія] / Close Encounters of the Third Kind [Director's Cut] [4K Remastered] (1977) 1080p H.265 3xUkr/Eng | Sub Eng

Нові коментарі

Нова тема   Відповісти
Автор Повідомлення
Anonymous 







2020-01-17 00:52  
Близькі контакти третього виду (роду | ступеня) [Режисерська версія] / Close Encounters of the Third Kind [Director's Cut] [4K Remastered] (1977) 1080p H.265 3xUkr/Eng | Sub Eng

Близькі контакти третього виду (роду | ступеня) [Режисерська версія] / Close Encounters of the Third Kind [Director's Cut] [4K Remastered] (1977) 1080p H.265 3xUkr/Eng | Sub Eng


Жанр: фантастика, драма, пригодницький
Країна: США
Кінокомпанія: Columbia Pictures Corporation, EMI Films, Julia Phillips and Michael Phillips Productions
Режисер: Стівен Спілберґ / Steven Spielberg
Актори: Річард Дрейфус / Richard Dreyfuss, Франсуа Трюффо / François Truffaut, Тері Ґар / Teri Garr, Мелінда Діллон / Melinda Dillon, Боб Балабен / Bob Balaban, Дж. Патрік МакНамара / J. Patrick McNamara, Воррен Дж. Кеммерлінґ / Warren J. Kemmerling, Робертс Блоссом / Roberts Blossom, Філіп Доддс / Philip Dodds, Кері Ґуфі / Cary Guffey та інші

Сюжет:
Збої в подачі електроенергії, повернення з нізвідки літаків, зниклих в 1945 році, бентежать вчених. Найменш скептичні люди науки розцінюють ці явища, як прямий доказ існування розумної інопланетної форми життя. Рой Неарі їде в пустелю, де були знайдені літаки, щоб провести власне розслідування. Вночі його автомобіль застрягає на шосе. Несподівано в темному небі з'являється загадкове джерело яскравого світла. Всього на мить Неарі потрапляє під його промені, що несуть інформацію з далеких світів. Після контакту з неземною цивілізацією Рой опиняється під владою дивних видінь, і це відбувається не тільки з ним...

Тривалість: 02:17:14
Якість:

Відео:
кодек: H.265 (HEVC)
розмір кадру: 1920 x 804
бітрейт: 12 863 кб/с
бітова глибина: 10 біт

Увага! Перед завантаженням переконайтесь, що ваш пристрій відтворення (та/або ПЗ) підтримує H.265 (HEVC)

Аудіо # 1:
мова: українська
переклад: багатоголосий закадровий
кодек: AC-3 2.0
бітрейт: 192 кб/с

Аудіо # 2:
мова: українська
переклад: двоголосий закадровий
кодек: AC-3 2.0
бітрейт: 192 кб/с

Аудіо # 3:
мова: українська
переклад: багатоголосий закадровий
кодек: AC-3 1.0
бітрейт: 192 кб/с

Аудіо # 4:
мова: англійська
переклад: оригінал
кодек: 5.1
бітрейт: 1510 кб/с

Субтитри # 1-2: (Full #1, Full #2)
мова: англійська
тип: програмні (м'які)
формат: *.srt


Info
Код:
General
Unique ID                                : 198764006980363442029474454754243263032 (0x95888E278CD74CF363EE1DE3123E3A38)
Complete name                            : Close Encounters of the Third Kind (1977) [Director's Cut] 1080p H.265 [3xUKR_ENG] [Hurtom].
Format                                   :
Format version                           : Version 4
File size                                : 14.3 GiB
Duration                                 : 2 h 17 min
Overall bit rate                         : 15.0 Mb/s
Movie name                               : Близькі контакти третього виду (роду | ступеня) [Режисерська версія] / Close Encounters of the Third Kind [Director's Cut]
Encoded date                             : UTC 2020-01-15 13:13:48
Writing application                      : v20.0.0 ('I Am The Sun') 64-bit
Writing library                          : libebml v1.3.5 + v1.4.8
Cover                                    : Yes
Attachments                              : Cover.jpg

Video
ID                                       : 1
Format                                   : HEVC
Format/Info                              : High Efficiency Video Coding
Format profile                           : Main [email protected]@High
Codec ID                                 : V_MPEGH/ISO/HEVC
Duration                                 : 2 h 17 min
Bit rate                                 : 12.9 Mb/s
Width                                    : 1 920 pixels
Height                                   : 804 pixels
Display aspect ratio                     : 2.40:1
Frame rate mode                          : Constant
Frame rate                               : 23.976 (23976/1000) FPS
Original frame rate                      : 23.976 (24000/1001) FPS
Color space                              : YUV
Chroma subsampling                       : 4:2:0
Bit depth                                : 10 bits
Bits/(Pixel*Frame)                       : 0.348
Stream size                              : 12.3 GiB (86%)
Title                                    : Близькі контакти третього виду (роду | ступеня) [Режисерська версія] / Close Encounters of the Third Kind [Director's Cut]
Writing library                          : x265 3.2.1+1-b5c86a64bbbe:[Windows][MSVC 1923][64 bit] 10bit
Encoding settings                        : cpuid=1111039 / frame-threads=3 / numa-pools=12 / wpp / no-pmode / no-pme / no-psnr / no-ssim / log-level=2 / input-csp=1 / input-res=1920x804 / interlace=0 / total-frames=2261 / level-idc=41 / high-tier=1 / uhd-bd=0 / ref=5 / no-allow-non-conformance / no-repeat-headers / annexb / no-aud / no-hrd / info / hash=0 / no-temporal-layers / open-gop / min-keyint=23 / keyint=240 / gop-lookahead=0 / bframes=14 / b-adapt=2 / b-pyramid / bframe-bias=0 / rc-lookahead=60 / lookahead-slices=4 / scenecut=40 / radl=0 / no-splice / no-intra-refresh / ctu=32 / min-cu-size=8 / rect / amp / max-tu-size=32 / tu-inter-depth=4 / tu-intra-depth=4 / limit-tu=1 / rdoq-level=2 / dynamic-rd=0.00 / no-ssim-rd / signhide / no-tskip / nr-intra=0 / nr-inter=0 / no-constrained-intra / no-strong-intra-smoothing / max-merge=4 / limit-refs=2 / limit-modes / me=3 / subme=7 / merange=57 / temporal-mvp / no-hme / weightp / weightb / no-analyze-src-pics / deblock=-3:-3 / no-sao / no-sao-non-deblock / rd=6 / selective-sao=0 / no-early-skip / no-rskip / no-fast-intra / no-tskip-fast / no-cu-lossless / no-b-intra / no-splitrd-skip / rdpenalty=0 / psy-rd=2.00 / psy-rdoq=1.00 / no-rd-refine / no-lossless / cbqpoffs=0 / crqpoffs=0 / rc=crf / crf=20.0 / qcomp=0.65 / qpstep=4 / stats-write=0 / stats-read=0 / vbv-maxrate=50000 / vbv-bufsize=50000 / vbv-init=0.9 / crf-max=0.0 / crf-min=0.0 / ipratio=1.40 / pbratio=1.30 / aq-mode=1 / aq-strength=1.00 / no-cutree / zone-count=0 / no-strict-cbr / qg-size=32 / no-rc-grain / qpmax=69 / qpmin=0 / no-const-vbv / sar=1 / overscan=0 / videoformat=5 / range=0 / colorprim=1 / transfer=1 / colormatrix=1 / chromaloc=0 / display-window=0 / cll=0,0 / min-luma=0 / max-luma=1023 / log2-max-poc-lsb=8 / vui-timing-info / vui-hrd-info / slices=1 / no-opt-qp-pps / no-opt-ref-list-length-pps / no-multi-pass-opt-rps / scenecut-bias=0.05 / no-opt-cu-delta-qp / no-aq-motion / no-hdr / no-hdr-opt / no-dhdr10-opt / no-idr-recovery-sei / analysis-reuse-level=5 / scale-factor=0 / refine-intra=0 / refine-inter=0 / refine-mv=1 / refine-ctu-distortion=0 / no-limit-sao / ctu-info=0 / no-lowpass-dct / refine-analysis-type=0 / copy-pic=1 / max-ausize-factor=1.0 / no-dynamic-refine / no-single-sei / no-hevc-aq / no-svt / no-field / qp-adaptation-range=1.00
Default                                  : Yes
Forced                                   : No
Color range                              : Limited
Color primaries                          : BT.709
Transfer characteristics                 : BT.709
Matrix coefficients                      : BT.709

Audio #1
ID                                       : 2
Format                                   : AC-3
Format/Info                              : Audio Coding 3
Commercial name                          : Dolby Digital
Codec ID                                 : A_AC3
Duration                                 : 2 h 17 min
Bit rate mode                            : Constant
Bit rate                                 : 192 kb/s
Channel(s)                               : 2 channels
Channel layout                           : L R
Sampling rate                            : 48.0 kHz
Frame rate                               : 31.250 FPS (1536 SPF)
Bit depth                                : 16 bits
Compression mode                         : Lossy
Stream size                              : 188 MiB (1%)
Title                                    : / 2.0 Ch / 192 kbps / БЗ / ICTV
Language                                 : Ukrainian
Service kind                             : Complete Main
Default                                  : Yes
Forced                                   : Yes

Audio #2
ID                                       : 3
Format                                   : AC-3
Format/Info                              : Audio Coding 3
Commercial name                          : Dolby Digital
Codec ID                                 : A_AC3
Duration                                 : 2 h 17 min
Bit rate mode                            : Constant
Bit rate                                 : 192 kb/s
Channel(s)                               : 2 channels
Channel layout                           : L R
Sampling rate                            : 48.0 kHz
Frame rate                               : 31.250 FPS (1536 SPF)
Bit depth                                : 16 bits
Compression mode                         : Lossy
Stream size                              : 188 MiB (1%)
Title                                    : / 2.0 Ch / 192 kbps / ДЗ / 1+1
Language                                 : Ukrainian
Service kind                             : Complete Main
Default                                  : No
Forced                                   : No

Audio #3
ID                                       : 4
Format                                   : AC-3
Format/Info                              : Audio Coding 3
Commercial name                          : Dolby Digital
Codec ID                                 : A_AC3
Duration                                 : 2 h 17 min
Bit rate mode                            : Constant
Bit rate                                 : 192 kb/s
Channel(s)                               : 1 channel
Channel layout                           : C
Sampling rate                            : 48.0 kHz
Frame rate                               : 31.250 FPS (1536 SPF)
Bit depth                                : 16 bits
Compression mode                         : Lossy
Stream size                              : 188 MiB (1%)
Title                                    : / 1.0 Ch / 192 kbps / БЗ / K1
Language                                 : Ukrainian
Service kind                             : Complete Main
Default                                  : No
Forced                                   : No

Audio #4
ID                                       : 5
Format                                   :
Format/Info                              : Digital Theater Systems
Codec ID                                 : A_DTS
Duration                                 : 2 h 17 min
Bit rate mode                            : Constant
Bit rate                                 : 1 509 kb/s
Channel(s)                               : 6 channels
Channel layout                           : C L R Ls Rs LFE
Sampling rate                            : 48.0 kHz
Frame rate                               : 93.750 FPS (512 SPF)
Bit depth                                : 24 bits
Compression mode                         : Lossy
Stream size                              : 1.45 GiB (10%)
Title                                    : / 5.1 Ch / 1509 kbps / Original
Language                                 : English
Default                                  : No
Forced                                   : No

Text #1
ID                                       : 6
Format                                   : UTF-8
Codec ID                                 : S_TEXT/UTF8
Codec ID/Info                            : UTF-8 Plain Text
Duration                                 : 2 h 11 min
Bit rate                                 : 36 b/s
Count of elements                        : 1105
Stream size                              : 35.1 KiB (0%)
Title                                    : Full #1
Language                                 : English
Default                                  : No
Forced                                   : No

Text #2
ID                                       : 7
Format                                   : UTF-8
Codec ID                                 : S_TEXT/UTF8
Codec ID/Info                            : UTF-8 Plain Text
Duration                                 : 2 h 11 min
Bit rate                                 : 36 b/s
Count of elements                        : 1036
Stream size                              : 35.1 KiB (0%)
Title                                    : Full #2
Language                                 : English
Default                                  : No
Forced                                   : No

Menu
00:00:00.000                             : en:Start
00:11:04.413                             : en:Sonora Desert, Mexico
00:14:41.422                             : en:Barry
00:19:57.321                             : en:The Neary Family
00:24:07.404                             : en:Close Encounter: First Kind
00:37:22.573                             : en:In Pursuit
00:48:38.790                             : en:Gobi Desert, Mongolia
01:01:18.299                             : en:Dharmsala, Northern India
01:19:32.600                             : en:Roy, Jillian & Barry
01:22:03.835                             : en:"Here They Come!"
01:26:26.639                             : en:Contacting the Guilers
01:34:00.092                             : en:Noticing Something Strange
01:42:35.816                             : en:Roy's Sculpture
01:45:42.377                             : en:Moorcroft, Wyoming Reunion
01:48:48.271                             : en:Cross-Country Detour
01:53:43.399                             : en:"We Need Answers"
01:57:49.729                             : en:Making Their Escape
02:02:00.521                             : en:Evading the Army
02:05:52.544                             : en:Targets Approaching
02:11:32.425                             : en:Making Contact
Світлини




Джерело: &
Особиста оцінка: 0 - не дивився


Срібний реліз (на рейтинг впливає 50% завантаженого)
 Трекер:    Зареєстрований   

Завантажити / скачати фільм українською



відео для новачків



 Зареєстрований:   2020-01-17 00:52
 Розмір:   14.33 GB 
 Оцінка фільму:   10/10 (Голосів: 7)
   
MakRA 
VIP


З нами з: 11.11.18
Востаннє: 25.09.20
Повідомлень: 1120

2020-01-17 01:07  
Бачив ну дуууже давно, мабуть років 20 назад. Треба глянути, цікаво,які будуть зараз враження.
Ваш часовий пояс: GMT + 2 Години

Нова тема   Відповісти