Зоряні таляри / Die Sterntaler (2011) 1080p Ukr/Ger

Нові коментарі

Нова тема   Відповісти
Автор Повідомлення
Anonymous 







2020-01-16 17:45  
Зоряні таляри / Die Sterntaler (2011) 1080p Ukr/Ger

Зоряні таляри / Die Sterntaler (2011) 1080p Ukr/Ger
DVD




Жанр: сімейний, казка
Країна: Німеччина



Кінокомпанія: Bavaria Film, Südwestrundfunk (SWR)
Режисер: Марія фон Хеланд
Актори: Мейра Дюран, Юліана Кьолер, Томас Лойбл, Руфус Бек, Аксель Праль, Грушенка Стівенс, Айзі Гульп, Нік Ромм, Клаус Мюнстер, Пауль Альхойзер, Лоренц Вількомм

Сюжет:
Юній Мині випало жити в дуже непрості часи: колись жадібний і безсердечний король забрав усіх працездатних жителів на роботу при дворі, і з тих пір діти та старі були змушені на превелику силу добувати прожиток. Одного разу королівська свита повідомила жителям, які ще залишилися в убогому селі, про те, що вони повинні заплатити королю чергову данину - 10 золотих талерів. Бідняки, які вже багато років не бачили жодної золотої монети, вирішили відіслати до короля Міну в надії на те, що вона розтопить королівське серце. Сподіваючись на Божу милість, маленька дівчинка вирушила в дорогу.


Тривалість: 00:58:32
Якість:
Відео:
кодек:
розмір кадру: 1920 х 1080
бітрейт: 6480 кб/с

Аудіо # 1:
мова: українська
переклад: професійний дубльований
кодек: 2.0
бітрейт: 192 кб/с

Аудіо # 2:
мова: німецька
переклад: оригінал
кодек: 2.0
бітрейт: 192 кб/с

Джерело озвучення:

За запис з ТБ дякую пану РОМЕО
Звук взято з релізу
Info
Код:
General
Unique ID                                : 251217945308287550790021317629552339392 (0xBCFED0FBE6064D15D36A47572243A9C0)
Complete name                            : Die Sterntaler (2011) 1080p [Ukr_Ger] [Hurtom].
Format                                   :
Format version                           : Version 4
File size                                : 2.81 GiB
Duration                                 : 58 min 32 s
Overall bit rate mode                    : Variable
Overall bit rate                         : 6 866 kb/s
Movie name                               : Зоряні таляри (2011)
Encoded date                             : UTC 2020-01-16 15:07:47
Writing application                      : v37.0.0 ('Leave It') 32-bit
Writing library                          : libebml v1.3.9 + v1.5.2
Cover                                    : Yes
Attachments                              : cover.jpg

Video
ID                                       : 1
Format                                   : AVC
Format/Info                              : Advanced Video Codec
Format profile                           : [email protected]
Format settings                          : CABAC / 2 Ref Frames
Format settings, CABAC                   : Yes
Format settings, ReFrames                : 2 frames
Codec ID                                 : V_MPEG4/ISO/AVC
Duration                                 : 58 min 32 s
Bit rate mode                            : Variable
Bit rate                                 : 6 480 kb/s
Maximum bit rate                         : 8 200 kb/s
Width                                    : 1 920 pixels
Height                                   : 1 080 pixels
Display aspect ratio                     : 16:9
Frame rate mode                          : Constant
Frame rate                               : 50.000 FPS
Color space                              : YUV
Chroma subsampling                       : 4:2:0
Bit depth                                : 8 bits
Scan type                                : Progressive
Bits/(Pixel*Frame)                       : 0.063
Stream size                              : 2.65 GiB (94%)
Language                                 : German
Default                                  : Yes
Forced                                   : No

Audio #1
ID                                       : 2
Format                                   : AC-3
Format/Info                              : Audio Coding 3
Commercial name                          : Dolby Digital
Codec ID                                 : A_AC3
Duration                                 : 58 min 32 s
Bit rate mode                            : Constant
Bit rate                                 : 192 kb/s
Channel(s)                               : 2 channels
Channel layout                           : L R
Sampling rate                            : 48.0 kHz
Frame rate                               : 31.250 FPS (1536 SPF)
Bit depth                                : 16 bits
Compression mode                         : Lossy
Stream size                              : 80.4 MiB (3%)
Language                                 : Ukrainian
Service kind                             : Complete Main
Default                                  : Yes
Forced                                   : Yes

Audio #2
ID                                       : 3
Format                                   : LC
Format/Info                              : Advanced Audio Codec Low Complexity
Codec ID                                 : A_AAC-2
Duration                                 : 58 min 32 s
Bit rate                                 : 192 kb/s
Channel(s)                               : 2 channels
Channel layout                           : L R
Sampling rate                            : 48.0 kHz
Frame rate                               : 46.875 FPS (1024 SPF)
Compression mode                         : Lossy
Stream size                              : 79.0 MiB (3%)
Language                                 : German
Default                                  : No
Forced                                   : No

Скріншоти




Джерело:


 Трекер:    Зареєстрований   

Завантажити / скачати фільм українською



відео для новачків



 Зареєстрований:   2020-01-16 17:45
 Розмір:   2.81 GB 
 Оцінка фільму:   10/10 (Голосів: 3)
   
Інші релізи
   Зоряні таляри / Die Sterntaler (2011) Arsenfpu  9 / 0   837 MB   2015-03-27 21:27 
Ваш часовий пояс: GMT + 2 Години

Нова тема   Відповісти