Трава / Leaves of Grass (2009) Remux 1080p Ukr/Eng | Sub Eng/Ger

Нові коментарі

Нова тема   Відповісти
Автор Повідомлення
Anonymous 







2020-01-15 22:04  
Трава / Leaves of Grass (2009) Remux 1080p Ukr/Eng | Sub Eng/Ger

Трава / Leaves of Grass (2009) Remux 1080p Ukr/Eng | Sub Eng/Ger


Жанр: комедія, кримінальний, драма, трилер
Країна: США



Кінокомпанія: Millennium Films, Langley Films, Class 5 Films, Leaves Productions, Grand Army Entertainment, Nu Image Films
Режисер: Тім Блейк Нельсон / Tim Blake Nelson
Актори: Едвард Нортон / Edward Norton, Люсі ДеВіто / Lucy DeVito, Кент Джуд Бернард / Kent Jude Bernard, Амелія Кемпбелл / Amelia Campbell, Тім Блейк Нельсон / Tim Blake Nelson, Рендел Рідер / Randal Reeder, Лео Фабіан / Leo Fabian, Прюітт Тейлор Вінс / Pruitt Taylor Vince, Тіна Паркер / Tina Parker, Сьюзен Сарандон / Susan Sarandon, Тай Беррелл / Ty Burrell, Лі Bілкоф / Lee Wilkof, Мелані Лінскі / Melanie Lynskey, Джош Пайс / Josh Pais, Ліза Бенавідес / Lisa Benavides

Сюжет:
Едвард Нортом роздвоюється на екрані, граючи двох братів-близнюків, один з яких є респектабельним професором, а інший - наркодилером, котрий торгує марихуаною. Останній намагається втягнути свого брата в небезпечну схему перемоги над конкурентами.


Тривалість: 01:44:31
Якість: Remux 1080p
Відео:
кодек: VC-1
розмір кадру: 1920x1080
бітрейт: 15 Мб/с

Аудіо # 1:
мова: українська
переклад: двоголосий закадровий
кодек: 2.0
бітрейт: 192 кб/с

Аудіо # 2:
мова: англійська
переклад: оригінал
кодек: -HD MA 5.1
бітрейт: 3461 кб/с

Субтитри:
мова: англійська
тип: пререндерні
формат: pgs

Субтитри:
мова: німецька
тип: пререндерні
формат: pgs
Info
General
Complete name : Leaves of Grass (2009) Remux 1080p [UKR_ENG] [Video_Hurtom].
Format :
Format version : Version 4
File size : 13.6 GiB
Duration : 1 h 44 min
Overall bit rate mode : Variable
Overall bit rate : 18.7 Mb/s
Encoded date : UTC 2020-01-15 19:31:07
Writing application : v30.1.0 ('Forever And More') 64-bit
Writing library : libebml v1.3.6 + v1.4.9
Cover : Yes
Attachments : cover.jpg

Video
ID : 1
Format : VC-1
Format profile : [email protected]
Codec ID : V_MS/VFW/FOURCC / WVC1
Codec ID/Hint : Microsoft
Duration : 1 h 44 min
Bit rate : 15.0 Mb/s
Width : 1 920 pixels
Height : 1 080 pixels
Display aspect ratio : 16:9
Frame rate mode : Constant
Frame rate : 23.976 (24000/1001) FPS
Color space : YUV
Chroma subsampling : 4:2:0
Bit depth : 8 bits
Scan type : Progressive
Compression mode : Lossy
Bits/(Pixel*Frame) : 0.302
Stream size : 11.0 GiB (80%)
Default : Yes
Forced : No

Audio #1
ID : 2
Format : AC-3
Format/Info : Audio Coding 3
Commercial name : Dolby Digital
Codec ID : A_AC3
Duration : 1 h 44 min
Bit rate mode : Constant
Bit rate : 192 kb/s
Channel(s) : 2 channels
Channel layout : L R
Sampling rate : 48.0 kHz
Frame rate : 31.250 FPS (1536 SPF)
Bit depth : 16 bits
Compression mode : Lossy
Stream size : 144 MiB (1%)
Title : , 2 ch, 192 Кбт/с
Language : Ukrainian
Service kind : Complete Main
Default : Yes
Forced : No

Audio #2
ID : 3
Format : XLL
Format/Info : Digital Theater Systems
Commercial name : -HD Master Audio
Codec ID : A_DTS
Duration : 1 h 44 min
Bit rate mode : Variable
Bit rate : 3 461 kb/s
Channel(s) : 6 channels
Channel layout : C L R Ls Rs LFE
Sampling rate : 48.0 kHz
Frame rate : 93.750 FPS (512 SPF)
Bit depth : 24 bits
Compression mode : Lossless
Delay relative to video : 42 ms
Stream size : 2.53 GiB (19%)
Title : -HD MA, 6 ch, 3461 Кбт/с
Language : English
Default : No
Forced : No

Text #1
ID : 4
Format : PGS
Muxing mode : zlib
Codec ID : S_HDMV/PGS
Codec ID/Info : Picture based subtitle format used on BDs/HD-DVDs
Duration : 1 h 36 min
Bit rate : 35.1 kb/s
Count of elements : 3338
Stream size : 24.2 MiB (0%)
Language : English
Default : Yes
Forced : No

Text #2
ID : 5
Format : PGS
Muxing mode : zlib
Codec ID : S_HDMV/PGS
Codec ID/Info : Picture based subtitle format used on BDs/HD-DVDs
Duration : 1 h 36 min
Bit rate : 58.5 kb/s
Count of elements : 2066
Stream size : 40.4 MiB (0%)
Language : German
Default : No
Forced : No




Джерело:
Подяка п.karvai0 за витягнення з архіву та синхронізацію української доріжки.
Особиста оцінка: 8 - мені сподобалося


Золотий реліз (завантажене не впливає на рейтинг)
 Трекер:    Зареєстрований   

Завантажити / скачати фільм українською



відео для новачків



 Зареєстрований:   2020-01-15 22:04
 Розмір:   13.64 GB 
 Оцінка фільму:   9.7/10 (Голосів: 6)
   
Інші релізи
   Трава / Leaves of Grass (2009) 1080p Ukr/Eng | Sub Eng antik_2008  3 / 0   8.17 GB   2020-01-15 15:55 
   Трава / Leaves of Grass (2009) 720p Ukr/Eng | Sub Eng staf777  4 / 0   4.16 GB   2019-08-04 10:59 
   Трава / Leaves of Grass (2009) Ukr/Eng | Sub Eng karvai0  3 / 0   2 GB   2012-05-03 21:12 
fatum69 
Частий відвідувач


З нами з: 10.12.16
Востаннє: 27.01.20
Повідомлень: 39

2020-01-16 15:10  
хороше кіно, гарний сюжет
Ваш часовий пояс: GMT + 2 Години

Нова тема   Відповісти