Трава / Leaves of Grass (2009) 1080p Ukr/Eng | Sub Eng

Нові коментарі

Нова тема   Відповісти
Автор Повідомлення
Anonymous 







2020-01-15 16:55  
Трава / Leaves of Grass (2009) 1080p Ukr/Eng | Sub Eng

Трава / Leaves of Grass (2009) 1080p Ukr/Eng | Sub Eng


Жанр: комедія, кримінальний, драма, трилер
Країна: США



Кінокомпанія: Millennium Films, Langley Films, Class 5 Films, Leaves Productions, Grand Army Entertainment, Nu Image Films
Режисер: Тім Блейк Нельсон / Tim Blake Nelson
Актори: Едвард Нортон / Edward Norton, Люсі ДеВіто / Lucy DeVito, Кент Джуд Бернард / Kent Jude Bernard, Амелія Кемпбелл / Amelia Campbell, Тім Блейк Нельсон / Tim Blake Nelson, Рендел Рідер / Randal Reeder, Лео Фабіан / Leo Fabian, Прюітт Тейлор Вінс / Pruitt Taylor Vince, Тіна Паркер / Tina Parker, Сьюзен Сарандон / Susan Sarandon, Тай Беррелл / Ty Burrell, Лі Bілкоф / Lee Wilkof, Мелані Лінскі / Melanie Lynskey, Джош Пайс / Josh Pais, Ліза Бенавідес / Lisa Benavides

Сюжет:
Едвард Нортом роздвоюється на екрані, граючи двох братів-близнюків, один з яких є респектабельним професором, а інший - наркодилером, котрий торгує марихуаною. Останній намагається втягнути свого брата в небезпечну схему перемоги над конкурентами.


Тривалість: 01:44:31
Якість: 1080p
Відео:
кодек:
розмір кадру: 1920 x 1040
бітрейт: 9481 кб/с

Аудіо # 1:
мова: українська
переклад: двоголосий закадровий
кодек: 2.0
бітрейт: 192 кб/с

Аудіо # 2:
мова: англійська
переклад: оригінал
кодек: 5.1
бітрейт: 1509 кб/с

Субтитри:
мова: англійська
тип: програмні (м'які)
формат: *.srt
Info
General
Complete name : Leaves of Grass (2009) 1080p [UKR_ENG].
Format :
Format version : Version 4
File size : 8.17 GiB
Duration : 1 h 44 min
Overall bit rate : 11.2 Mb/s
Encoded date : UTC 2020-01-15 10:40:16
Writing application : v30.1.0 ('Forever And More') 64-bit
Writing library : libebml v1.3.6 + v1.4.9
Cover : Yes
Attachments : cover.jpg

Video
ID : 1
Format : AVC
Format/Info : Advanced Video Codec
Format profile : [email protected]
Format settings : CABAC / 4 Ref Frames
Format settings, CABAC : Yes
Format settings, RefFrames : 4 frames
Codec ID : V_MPEG4/ISO/AVC
Duration : 1 h 44 min
Bit rate : 9 481 kb/s
Width : 1 920 pixels
Height : 1 040 pixels
Display aspect ratio : 1.85:1
Frame rate mode : Constant
Frame rate : 23.976 (24000/1001) FPS
Color space : YUV
Chroma subsampling : 4:2:0
Bit depth : 8 bits
Scan type : Progressive
Bits/(Pixel*Frame) : 0.198
Stream size : 6.92 GiB (85%)
Title : Leaves of Grass (2009) - Release for BLUEBIRD
Writing library : core 159 r2991 1771b55
Encoding settings : cabac=1 / ref=4 / deblock=1:-3:-3 / analyse=0x3:0x133 / me=umh / subme=11 / psy=1 / psy_rd=1.05:0.00 / mixed_ref=1 / me_range=32 / chroma_me=1 / trellis=2 / 8x8dct=1 / cqm=0 / deadzone=21,11 / fast_pskip=0 / chroma_qp_offset=-2 / threads=12 / lookahead_threads=3 / sliced_threads=0 / nr=0 / decimate=0 / interlaced=0 / bluray_compat=0 / constrained_intra=0 / bframes=12 / b_pyramid=2 / b_adapt=2 / b_bias=0 / direct=3 / weightb=1 / open_gop=0 / weightp=2 / keyint=240 / keyint_min=23 / scenecut=40 / intra_refresh=0 / rc=crf / mbtree=0 / crf=18.2 / qcomp=0.65 / qpmin=0 / qpmax=69 / qpstep=4 / ip_ratio=1.30 / pb_ratio=1.20 / aq=3:0.85
Language : English
Default : Yes
Forced : No

Audio #1
ID : 2
Format : AC-3
Format/Info : Audio Coding 3
Commercial name : Dolby Digital
Codec ID : A_AC3
Duration : 1 h 44 min
Bit rate mode : Constant
Bit rate : 192 kb/s
Channel(s) : 2 channels
Channel layout : L R
Sampling rate : 48.0 kHz
Frame rate : 31.250 FPS (1536 SPF)
Bit depth : 16 bits
Compression mode : Lossy
Stream size : 144 MiB (2%)
Title : 48 kHz/16-bit, , 2/0 (L,R), ~ 192.00 kbps avg
Language : Ukrainian
Service kind : Complete Main
Default : Yes
Forced : No

Audio #2
ID : 3
Format :
Format/Info : Digital Theater Systems
Codec ID : A_DTS
Duration : 1 h 44 min
Bit rate mode : Constant
Bit rate : 1 509 kb/s
Channel(s) : 6 channels
Channel layout : C L R Ls Rs LFE
Sampling rate : 48.0 kHz
Frame rate : 93.750 FPS (512 SPF)
Bit depth : 24 bits
Compression mode : Lossy
Stream size : 1.10 GiB (13%)
Title : 48 kHz/24-bit, , 3/2 (L,C,R,l,r) + LFE ch, ~ 1536.00 kbps
Language : English
Default : No
Forced : No

Text
ID : 4
Format : UTF-8
Codec ID : S_TEXT/UTF8
Codec ID/Info : UTF-8 Plain Text
Duration : 1 h 36 min
Bit rate : 76 b/s
Count of elements : 1669
Stream size : 54.0 KiB (0%)
Language : English
Default : No
Forced : No




Джерело: &
Подяка п.karvai0 за витягнення з архіву та синхронізацію української доріжки.
Особиста оцінка: 8 - мені сподобалося


 Трекер:    Зареєстрований   

Завантажити / скачати фільм українською



відео для новачків



 Зареєстрований:   2020-01-15 16:55
 Розмір:   8.17 GB 
 Оцінка фільму:   9.7/10 (Голосів: 3)
   
Інші релізи
   Трава / Leaves of Grass (2009) Remux 1080p Ukr/Eng | Sub Eng/Ger antik_2008  1 / 0   13.64 GB   2020-01-15 23:04 
   Трава / Leaves of Grass (2009) 720p Ukr/Eng | Sub Eng staf777  2 / 0   4.16 GB   2019-08-04 11:59 
   Трава / Leaves of Grass (2009) Ukr/Eng | Sub Eng karvai0  4 / 0   2 GB   2012-05-03 22:12 
Ваш часовий пояс: GMT + 2 Години

Нова тема   Відповісти