Чаклунка: Повелителька темряви / Maleficent: Mistress of Evil (2019) 1080p Ukr/Eng | Sub Eng

Нові коментарі

Нова тема   Відповісти
Автор Повідомлення
Anonymous 







2020-01-15 16:48  
Чаклунка: Повелителька темряви / Maleficent: Mistress of Evil (2019) 1080p Ukr/Eng | Sub Eng


Альтернативні постери




Жанр: пригоди, сімейний, фентезі
Країна: США, Велика Британія



Кінокомпанія: Roth Films, Walt Disney Pictures
Режисер: Хоакім Роннінг
Актори: Анджеліна Джолі, Ель Фаннінг, Гарріс Дікінсон, Мішель Пфайффер, Сем Райлі, Чіветел Еджиофор, Ед Скрейн, Роберт Ліндсей, Девід Гайасі

Сюжет:
Приголомшлива фентезі-історія продовжиться! Після того як Чаклунка наклала закляття на королеву Аврору, життя магічного лісу та його фантастичних мешканців змінилося назавжди. Щоб вистояти у боротьбі проти темряви, молода правителька повинна знайти могутніх союзників - інакше її світ зникне.


Тривалість: 01:58:50
Якість: 1080p

Відео:
кодек:
розмір кадру: 1920x800
бітрейт: 12,8 Мб/с

Аудіо # 1:
мова: українська
переклад: професійний дубльований
кодек: 5.1
бітрейт: 1536 кб/с

Аудіо # 2:
мова: українська
переклад: професійний дубльований
кодек: 5.1
бітрейт: 448 кб/с

Аудіо # 3:
мова: англійська
переклад: оригінал
кодек: 5.1
бітрейт: 640 кб/с

Субтитри: (Full, SDH)
мова: англійська
тип: програмні (м'які)
формат: *.srt
Info
Код:
General
Complete name                            : Maleficent Mistress of Evil (2019) 1080p [Ukr_Eng] [Video_Hurtom].
Format                                   :
Format version                           : Version 4
File size                                : 12.7 GiB
Duration                                 : 1 h 58 min
Overall bit rate                         : 15.4 Mb/s
Encoded date                             : UTC 2020-03-12 22:33:42
Writing application                      : v44.0.0 ('Domino') 64-bit
Writing library                          : libebml v1.3.10 + v1.5.2
Cover                                    : Yes
Attachments                              : cover.jpg

Video
ID                                       : 1
Format                                   : AVC
Format/Info                              : Advanced Video Codec
Format profile                           : [email protected]
Format settings                          : CABAC / 4 Ref Frames
Format settings, CABAC                   : Yes
Format settings, RefFrames               : 4 frames
Codec ID                                 : V_MPEG4/ISO/AVC
Duration                                 : 1 h 58 min
Bit rate                                 : 12.8 Mb/s
Width                                    : 1 920 pixels
Height                                   : 800 pixels
Display aspect ratio                     : 2.40:1
Frame rate mode                          : Constant
Frame rate                               : 23.976 (24000/1001) FPS
Color space                              : YUV
Chroma subsampling                       : 4:2:0
Bit depth                                : 8 bits
Scan type                                : Progressive
Bits/(Pixel*Frame)                       : 0.346
Stream size                              : 10.6 GiB (83%)
Title                                    : CHD
Writing library                          : core 157 r2867+150 7e91e0e t_mod_Custom_2 [[email protected] X86_64]
Encoding settings                        : cabac=1 / ref=4 / deblock=1:-3:-3 / analyse=0x3:0x133 / me=umh / subme=11 / psy=1 / fade_compensate=0.00 / psy_rd=0.90:0.10 / mixed_ref=1 / me_range=64 / chroma_me=1 / trellis=2 / 8x8dct=1 / cqm=0 / deadzone=21,11 / fast_pskip=0 / chroma_qp_offset=-4 / threads=25 / lookahead_threads=4 / sliced_threads=0 / nr=0 / decimate=1 / interlaced=0 / bluray_compat=0 / constrained_intra=0 / fgo=0 / bframes=8 / b_pyramid=2 / b_adapt=2 / b_bias=0 / direct=3 / weightb=1 / open_gop=0 / weightp=2 / keyint=250 / keyint_min=23 / scenecut=40 / intra_refresh=0 / rc_lookahead=60 / rc=crf / mbtree=0 / crf=17.0000 / qcomp=0.70 / qpmin=0:0:0 / qpmax=69:69:69 / qpstep=4 / vbv_maxrate=35000 / vbv_bufsize=35000 / crf_max=0.0 / nal_hrd=none / filler=0 / ip_ratio=1.40 / pb_ratio=1.30 / aq=3:1.00 / aq-sensitivity=10.00 / aq-factor=1.00:1.00:1.00 / aq2=0 / aq3=0
Language                                 : English
Default                                  : Yes
Forced                                   : No

Audio #1
ID                                       : 2
Format                                   :
Format/Info                              : Digital Theater Systems
Codec ID                                 : A_DTS
Duration                                 : 1 h 58 min
Bit rate mode                            : Constant
Bit rate                                 : 1 509 kb/s
Channel(s)                               : 6 channels
Channel layout                           : C L R Ls Rs LFE
Sampling rate                            : 48.0 kHz
Frame rate                               : 93.750 FPS (512 SPF)
Bit depth                                : 24 bits
Compression mode                         : Lossy
Stream size                              : 1.25 GiB (10%)
Title                                    : 5.1 | 1536
Language                                 : Ukrainian
Default                                  : Yes
Forced                                   : No

Audio #2
ID                                       : 3
Format                                   : AC-3
Format/Info                              : Audio Coding 3
Commercial name                          : Dolby Digital
Codec ID                                 : A_AC3
Duration                                 : 1 h 58 min
Bit rate mode                            : Constant
Bit rate                                 : 448 kb/s
Channel(s)                               : 6 channels
Channel layout                           : L R C LFE Ls Rs
Sampling rate                            : 48.0 kHz
Frame rate                               : 31.250 FPS (1536 SPF)
Bit depth                                : 16 bits
Compression mode                         : Lossy
Stream size                              : 381 MiB (3%)
Title                                    : 5.1 | 448
Language                                 : Ukrainian
Service kind                             : Complete Main
Default                                  : No
Forced                                   : No

Audio #3
ID                                       : 4
Format                                   : AC-3
Format/Info                              : Audio Coding 3
Commercial name                          : Dolby Digital
Codec ID                                 : A_AC3
Duration                                 : 1 h 58 min
Bit rate mode                            : Constant
Bit rate                                 : 640 kb/s
Channel(s)                               : 6 channels
Channel layout                           : L R C LFE Ls Rs
Sampling rate                            : 48.0 kHz
Frame rate                               : 31.250 FPS (1536 SPF)
Bit depth                                : 16 bits
Compression mode                         : Lossy
Stream size                              : 544 MiB (4%)
Title                                    : 5.1 | 640
Language                                 : English
Service kind                             : Complete Main
Default                                  : No
Forced                                   : No

Text #1
ID                                       : 5
Format                                   : UTF-8
Codec ID                                 : S_TEXT/UTF8
Codec ID/Info                            : UTF-8 Plain Text
Duration                                 : 1 h 49 min
Bit rate                                 : 31 b/s
Count of elements                        : 1021
Stream size                              : 25.5 KiB (0%)
Title                                    : Full
Language                                 : English
Default                                  : No
Forced                                   : No

Text #2
ID                                       : 6
Format                                   : UTF-8
Codec ID                                 : S_TEXT/UTF8
Codec ID/Info                            : UTF-8 Plain Text
Duration                                 : 1 h 53 min
Bit rate                                 : 44 b/s
Count of elements                        : 1604
Stream size                              : 36.8 KiB (0%)
Title                                    : SDH
Language                                 : English
Default                                  : Yes
Forced                                   : No

Menu
00:00:00.000                             : en:Chapters01
00:06:47.907                             : en:Chapters02
00:09:11.676                             : en:Chapters03
00:14:45.551                             : en:Chapters04
00:19:27.833                             : en:Chapters05
00:23:10.556                             : en:Chapters06
00:33:51.905                             : en:Chapters07
00:39:10.265                             : en:Chapters08
00:42:19.579                             : en:Chapters09
00:48:31.992                             : en:Chapters10
00:52:44.745                             : en:Chapters11
00:57:15.140                             : en:Chapters12
00:59:26.146                             : en:Chapters13
01:05:47.569                             : en:Chapters14
01:09:31.751                             : en:Chapters15
01:19:07.242                             : en:Chapters16
01:22:48.547                             : en:Chapters17
01:29:09.219                             : en:Chapters18
01:35:00.653                             : en:Chapters19
01:44:26.510                             : en:Chapters20
01:51:06.994                             : en:Chapters21 
Скріншоти




Джерело:
Особиста оцінка: 0 - не дивився
Подяка пану Hanway за синхронізацію звуку.


 Трекер:    Зареєстрований   

Завантажити / скачати фільм українською



відео для новачків



 Зареєстрований:   2020-03-13 02:37
 Розмір:   12.74 GB 
 Оцінка фільму:   9.2/10 (Голосів: 53)
   
alex_blank 
Частий відвідувач


З нами з: 03.01.10
Востаннє: 30.09.20
Повідомлень: 38

2020-01-15 18:15  
Line ?
PuMa.ua 
VIP


З нами з: 29.08.08
Востаннє: 01.10.20
Повідомлень: 466

2020-01-15 19:51  
alex_blank
iTunes

khimera 
Свій


З нами з: 02.10.09
Востаннє: 31.07.20
Повідомлень: 50

2020-01-15 21:59  
PuMa.ua написано:
iTunes

там начебто 5.1 має бути

PuMa.ua 
VIP


З нами з: 29.08.08
Востаннє: 01.10.20
Повідомлень: 466

2020-01-15 22:51  
khimera
ну так пан у стартовій темі з AVC написав, а в тунзі і справді 5.1 і рента за 4 долари.

Anonymous 







2020-03-13 02:37  
Торент файл оновлено. Заміна аудіо на якісніше.
Ваш часовий пояс: GMT + 2 Години

Нова тема   Відповісти