Чаклунка: Повелителька темряви / Maleficent: Mistress of Evil (2019) UHD Remux 4K 2160p Ukr/Eng | Sub Eng

Нові коментарі

Нова тема   Відповісти
Автор Повідомлення
Anonymous 







2020-01-15 16:36  
Чаклунка: Повелителька темряви / Maleficent: Mistress of Evil (2019) UHD Remux 4K 2160p Ukr/Eng | Sub Eng


Альтернативні постери





Жанр: пригодницький, сімейний, фентезі
Країна: США, Велика Британія



Кінокомпанія: Roth Films, Walt Disney Pictures
Режисер: Хоакім Роннінг
Актори: Анджеліна Джолі, Ель Фаннінг, Гарріс Дікінсон, Мішель Пфайффер, Сем Райлі, Чіветел Еджиофор, Ед Скрейн, Роберт Ліндсей, Девід Гайасі

Сюжет:
Приголомшлива фентезі-історія продовжиться! Після того як Чаклунка наклала закляття на королеву Аврору, життя магічного лісу та його фантастичних мешканців змінилося назавжди. Щоб вистояти у боротьбі проти темряви, молода правителька повинна знайти могутніх союзників - інакше її світ зникне.


Тривалість: 01:58:50
Якість: UHD Remux 4K 2160p

Відео:
кодек: H.265 (HEVC)
розмір кадру: 3840x2160
бітрейт: 52861 кб/с
бітова глибина: 10 біт
кольоровий простір: BT.2020 (HDR)

Аудіо # 1:
мова: українська
переклад: професійний дубльований
кодек: -HD MAster 5.1
бітрейт: 3996 кб/с

Аудіо # 2:
мова: українська
переклад: професійний дубльований
кодек: 5.1
бітрейт: 1536 кб/с

Аудіо # 3:
мова: українська
переклад: професійний дубльований
кодек: 5.1
бітрейт: 640 кб/с

Аудіо # 4:
мова: англійська
переклад: оригінал
кодек: 5.1
бітрейт: 448 кб/с

Аудіо # 5:
мова: англійська
переклад: оригінал
кодек: TrueHD + Atmos 7.1
бітрейт: 5128 кб/с

Субтитри:
мова: англійська
тип: програмні (м'які)
формат: *.srt
Info
Код:
General
Complete name                            : Maleficent Mistress of Evil (2019) UHD Remux 2160p [Ukr_Eng] [Video_Hurtom].
Format                                   :
Format version                           : Version 4
File size                                : 53.7 GiB
Duration                                 : 1 h 58 min
Overall bit rate mode                    : Variable
Overall bit rate                         : 64.7 Mb/s
Encoded date                             : UTC 2020-03-13 00:13:38
Writing application                      : v44.0.0 ('Domino') 64-bit
Writing library                          : libebml v1.3.10 + v1.5.2
Cover                                    : Yes
Attachments                              : cover.jpg

Video
ID                                       : 1
Format                                   : HEVC
Format/Info                              : High Efficiency Video Coding
Commercial name                          : HDR10
Format profile                           : Main [email protected]@High
Codec ID                                 : V_MPEGH/ISO/HEVC
Duration                                 : 1 h 58 min
Bit rate                                 : 52.9 Mb/s
Width                                    : 3 840 pixels
Height                                   : 2 160 pixels
Display aspect ratio                     : 16:9
Frame rate mode                          : Constant
Frame rate                               : 23.976 (24000/1001) FPS
Color space                              : YUV
Chroma subsampling                       : 4:2:0 (Type 2)
Bit depth                                : 10 bits
Bits/(Pixel*Frame)                       : 0.266
Stream size                              : 43.9 GiB (82%)
Writing library                          : ATEME Titan File 3.9.0 (4.9.0.0)
Default                                  : Yes
Forced                                   : No
Color range                              : Limited
Color primaries                          : BT.2020
Transfer characteristics                 : PQ
Matrix coefficients                      : BT.2020 non-constant
Mastering display color primaries        : Display P3
Mastering display luminance              : min: 0.0001 cd/m2, max: 1000 cd/m2

Audio #1
ID                                       : 2
Format                                   : XLL
Format/Info                              : Digital Theater Systems
Commercial name                          : -HD Master Audio
Codec ID                                 : A_DTS
Duration                                 : 1 h 58 min
Bit rate mode                            : Variable
Bit rate                                 : 3 996 kb/s
Channel(s)                               : 6 channels
Channel layout                           : C L R Ls Rs LFE
Sampling rate                            : 48.0 kHz
Frame rate                               : 93.750 FPS (512 SPF)
Bit depth                                : 24 bits
Compression mode                         : Lossless
Stream size                              : 3.32 GiB (6%)
Title                                    :   - HD Vaster 5.1 | 3396
Language                                 : Ukrainian
Default                                  : Yes
Forced                                   : No

Audio #2
ID                                       : 3
Format                                   :
Format/Info                              : Digital Theater Systems
Codec ID                                 : A_DTS
Duration                                 : 1 h 58 min
Bit rate mode                            : Constant
Bit rate                                 : 1 509 kb/s
Channel(s)                               : 6 channels
Channel layout                           : C L R Ls Rs LFE
Sampling rate                            : 48.0 kHz
Frame rate                               : 93.750 FPS (512 SPF)
Bit depth                                : 24 bits
Compression mode                         : Lossy
Stream size                              : 1.25 GiB (2%)
Title                                    : 5.1 | 1536
Language                                 : Ukrainian
Default                                  : No
Forced                                   : No

Audio #3
ID                                       : 4
Format                                   : AC-3
Format/Info                              : Audio Coding 3
Commercial name                          : Dolby Digital
Codec ID                                 : A_AC3
Duration                                 : 1 h 58 min
Bit rate mode                            : Constant
Bit rate                                 : 640 kb/s
Channel(s)                               : 6 channels
Channel layout                           : L R C LFE Ls Rs
Sampling rate                            : 48.0 kHz
Frame rate                               : 31.250 FPS (1536 SPF)
Bit depth                                : 16 bits
Compression mode                         : Lossy
Stream size                              : 544 MiB (1%)
Title                                    : , 5.1, 640 Kbps
Language                                 : Ukrainian
Service kind                             : Complete Main
Default                                  : No
Forced                                   : No

Audio #4
ID                                       : 5
Format                                   : AC-3
Format/Info                              : Audio Coding 3
Commercial name                          : Dolby Digital
Codec ID                                 : A_AC3
Duration                                 : 1 h 58 min
Bit rate mode                            : Constant
Bit rate                                 : 448 kb/s
Channel(s)                               : 6 channels
Channel layout                           : L R C LFE Ls Rs
Sampling rate                            : 48.0 kHz
Frame rate                               : 31.250 FPS (1536 SPF)
Bit depth                                : 16 bits
Compression mode                         : Lossy
Stream size                              : 381 MiB (1%)
Title                                    : , 5.1, 448 Kbps
Language                                 : English
Service kind                             : Complete Main
Default                                  : No
Forced                                   : No

Audio #5
ID                                       : 6
Format                                   : MLP FBA 16-ch
Format/Info                              : Meridian Lossless Packing FBA with 16-channel presentation
Commercial name                          : Dolby TrueHD with Dolby Atmos
Codec ID                                 : A_TRUEHD
Duration                                 : 1 h 58 min
Bit rate mode                            : Variable
Bit rate                                 : 5 128 kb/s
Maximum bit rate                         : 8 160 kb/s
Channel(s)                               : 8 channels
Channel layout                           : L R C LFE Ls Rs Lb Rb
Sampling rate                            : 48.0 kHz
Frame rate                               : 1 200.000 FPS (40 SPF)
Compression mode                         : Lossless
Stream size                              : 4.26 GiB (8%)
Title                                    : TrueHD, 7.1, 5128 Kbps
Language                                 : English
Default                                  : No
Forced                                   : No
Number of dynamic objects                : 13
Bed channel count                        : 1 channel
Bed channel configuration                : LFE

Text #1
ID                                       : 7
Format                                   : UTF-8
Codec ID                                 : S_TEXT/UTF8
Codec ID/Info                            : UTF-8 Plain Text
Duration                                 : 1 h 49 min
Bit rate                                 : 31 b/s
Count of elements                        : 1021
Stream size                              : 25.5 KiB (0%)
Title                                    : Full
Language                                 : English
Default                                  : Yes
Forced                                   : No

Text #2
ID                                       : 8
Format                                   : UTF-8
Codec ID                                 : S_TEXT/UTF8
Codec ID/Info                            : UTF-8 Plain Text
Duration                                 : 1 h 53 min
Bit rate                                 : 44 b/s
Count of elements                        : 1604
Stream size                              : 36.8 KiB (0%)
Title                                    : SDH
Language                                 : English
Default                                  : No
Forced                                   : No
Скріншоти

Подяка пану Hanway за синхронізацію звуку.
Джерело: &
Особиста оцінка: 0 - не дивився
Увага! Перед завантаженням переконайтесь, що ваш пристрій відтворення (та/або ПЗ) підтримує H.265 (HEVC)


Золотий реліз (завантажене не впливає на рейтинг)
 Трекер:    Зареєстрований   

Завантажити / скачати фільм українською



відео для новачків



 Зареєстрований:   2020-03-13 03:49
 Розмір:   53.68 GB 
 Оцінка фільму:   8.9/10 (Голосів: 26)
   
[email protected] 
Відео Гуртом - підтримка та поширення
Відео Гуртом - підтримка та поширення


З нами з: 16.06.12
Востаннє: 01.10.20
Повідомлень: 1427

2020-01-19 10:47  
Першу частину будуть викладати в 4К?
igor911 
Модератор відео


З нами з: 18.01.08
Востаннє: 01.10.20
Повідомлень: 15011

2020-01-19 11:02  
[email protected] написано:
Першу частину будуть викладати в 4К?

Давно виклали.

Anonymous 







2020-03-13 03:49  
Торент файл оновлено. Заміна аудіо на якісніше.
severn2001 
Частий відвідувач


З нами з: 28.03.15
Востаннє: 01.10.20
Повідомлень: 36

2020-03-21 16:59  
Anonymous

Доброго дня.
А чи не можна таку ж прекрасну доріжку оформити й для Terminator: Dark Fate ?....

Ваш часовий пояс: GMT + 2 Години

Нова тема   Відповісти