Динофроз / Dinofroz (Сезон 1, 20 серій з 26) (2012) 1080p

Нові коментарі

Нова тема   Відповісти
Останній раз роздавалося karunatko (2021-04-01)
Автор Повідомлення
sergiyko.5 
Забанено
Забанено


З нами з: 25.02.16
Востаннє: 29.10.20
Повідомлень: 3648

2020-01-15 13:05  
Всі одноіменні релізи на трекері

Динофроз / Dinofroz (Сезон 1) (2012) 1080p


Динофроз / Dinofroz (Сезон 1, 20 серій з 26) (2012) 1080p

Жанр: пригоди, фентезі
Країна: Італія
Кінокомпанія: Giochi Preziosi, MEG Entertainment Group, Mondo TV
Режисер: Орландо Корраді

Сюжет:
У центрі уваги сюжету квартет простих дванадцятирічних школярів. Головні персонажі займаються типовими для свого віку речами: вони веселяться, добре проводять час, відпочивають і займаються спортом. Однак найменше Боб, Ерік, Джон і Том могли собі уявити, що своєю веселою компанією виявляться в іншому вимірі, де життя проходить трохи інакше, не так як в звичному для них світі. Тут мешкають дивні істоти, в яких головні персонажі перетворюються самі. Вони - динозаври, але вельми маленькі. Щоб стати кимось більш істотним, потрібно робити добрі справи. Хлопці виявляються в епіцентрі війни з драконами, яка розгортається неймовірним чином.




Тривалість: 1 серія: 26:00 (цілком серій: 20 з 26)
Якість:

Відео: кодек: розмір кадру: 1920 х 1080 бітрейт: 5000 кб/с
Аудіо: мова: українська переклад: багатоголосий закадровий кодек: MP2 2.0 бітрейт: 160 кб/с
Озвучення: КІТ

Примітка: українська доріжка записана з супутникової трансляції і синхронізована під відео, звук не розтягувався і не змінювався тон.
Перелік серій
01 The Origin
02 The Shaman
03 The Rockfroz
04 A New Anemy
05 Surprise Attack
06 In the Land of the Crushing Liana
07 Neceron the Mercyless
08 The Temple of Doom
09 The Predestined
10 Unexpected Help
11 Mortal Danger

14 The Revolt of the Dragons

16 Message From the Past
17 Adventure for 6

20 Return From the Dark
21 The Shadow of the Enemy
22 Mission White Dragon
23 Desperate Escape
24 The Last Eclips
25 Bare Faced
Про файл:
General
Unique ID : 191063418046827873371190290039435713408 (0x8FBD79CEA4024864E08305636D685B80)
Complete name : D:\Documents\Torrents\MULTSER_2\Dinofroz S01 1080p \S01E01.The Origin.1080p..
Format :
Format version : Version 4
File size : 961 MiB
Duration : 25 min 28 s
Overall bit rate : 5 271 kb/s
Movie name : rip by sergiyko
Encoded date : UTC 2020-01-15 07:29:20
Writing application : v42.0.0 ('Overtime') 64-bit
Writing library : libebml v1.3.10 + v1.5.2

Video
ID : 1
Format : AVC
Format/Info : Advanced Video Codec
Format profile : [email protected]
Format settings : CABAC / 3 Ref Frames
Format settings, CABAC : Yes
Format settings, Reference : 3 frames
Codec ID : V_MPEG4/ISO/AVC
Duration : 25 min 28 s
Bit rate : 5 120 kb/s
Width : 1 920 pixels
Height : 1 080 pixels
Display aspect ratio : 16:9
Frame rate mode : Constant
Frame rate : 25.000 FPS
Color space : YUV
Chroma subsampling : 4:2:0
Bit depth : 8 bits
Scan type : Progressive
Bits/(Pixel*Frame) : 0.099
Stream size : 931 MiB (97%)
Writing library : core 142
Encoding settings : cabac=1 / ref=4 / deblock=1:0:0 / analyse=0x3:0x133 / me=umh / subme=9 / psy=1 / psy_rd=1.00:0.00 / mixed_ref=1 / me_range=24 / chroma_me=1 / trellis=2 / 8x8dct=1 / cqm=0 / deadzone=21,11 / fast_pskip=1 / chroma_qp_offset=-2 / threads=2 / lookahead_threads=1 / sliced_threads=0 / nr=0 / decimate=1 / interlaced=0 / bluray_compat=0 / constrained_intra=0 / bframes=9 / b_pyramid=1 / b_adapt=2 / b_bias=0 / direct=3 / weightb=1 / open_gop=0 / weightp=2 / keyint=100 / keyint_min=10 / scenecut=40 / intra_refresh=0 / rc_lookahead=100 / rc=2pass / mbtree=1 / bitrate=5120 / ratetol=1.0 / qcomp=0.60 / qpmin=0 / qpmax=69 / qpstep=4 / cplxblur=20.0 / qblur=0.5 / vbv_maxrate=6656 / vbv_bufsize=7680 / nal_hrd=none / filler=0 / ip_ratio=1.40 / aq=1:1.00
Language : English
Default : Yes
Forced : No

Audio
ID : 2
Format : MPEG Audio
Format version : Version 1
Format profile : Layer 2
Codec ID : A_MPEG/L2
Codec ID/Hint : MP2
Duration : 25 min 28 s
Bit rate mode : Constant
Bit rate : 160 kb/s
Channel(s) : 2 channels
Sampling rate : 48.0 kHz
Frame rate : 41.667 FPS (1152 SPF)
Compression mode : Lossy
Delay relative to video : 20 ms
Stream size : 29.2 MiB (3%)
Language : Ukrainian
Default : Yes
Forced : No
Скріншоти:


Запис/зведення: sergiyko


Бронзовий реліз (на рейтинг впливає 75% завантаженого)
 Трекер:    Зареєстрований   

Завантажити / скачати мультфільм українською



відео для новачків



 Зареєстрований:   2020-01-31 20:51
 Розмір:   18.62 GB 
 Оцінка мультсеріалу:   10/10 (Голосів: 7)
   
andros507 
VIP


З нами з: 15.09.10
Востаннє: 10.04.21
Повідомлень: 326

2020-01-16 01:32  
А хто показує, Малятко?
sergiyko.5 
Забанено
Забанено


З нами з: 25.02.16
Востаннє: 29.10.20
Повідомлень: 3648

2020-01-16 07:54  
andros507 написано:
А хто показує, Малятко?


Київ ТБ

Himik_btf 
Новенький


З нами з: 25.07.11
Востаннє: 10.04.21
Повідомлень: 12

2020-01-23 21:39  
Чудовий мультсеріал для маленьких глядачів. Дякую, Сергійко.5!
R.G.All_Coders 
VIP


З нами з: 14.09.13
Востаннє: 11.04.21
Повідомлень: 301

2020-01-28 19:15  
andros507 написано:
А хто показує, Малятко?

https://tv.i.ua/trkkyiv/

sergiyko.5 
Забанено
Забанено


З нами з: 25.02.16
Востаннє: 29.10.20
Повідомлень: 3648

2020-01-31 20:57  
Додав нові серії та почав другий сезон https://toloka.to/t107714
Ваш часовий пояс: GMT + 2 Години

Нова тема   Відповісти