Манжурський кандидат / The Manchurian Candidate (1962) Remux 1080p [Criterion Collection] Ukr/Eng | Sub Eng

Нові коментарі

Нова тема   Відповісти
Автор Повідомлення
MakRA 
VIP


З нами з: 11.11.18
Востаннє: 22.09.20
Повідомлень: 1119

2020-01-15 01:30  
Манжурський кандидат / The Manchurian Candidate (1962) Remux 1080p [Criterion Collection] Ukr/Eng | Sub Eng


Український постер:

Альтернативні обкладинки:


Альтернативні постери:



Жанр: політичний трилер, драма, детектив
Країна: США



Кінокомпанія: M.C. Productions
Режисер: Джон Франкенгеймер [John Frankenheimer]
Актори: Френк Сінатра [Frank Sinatra], Лоуренс Гарві [Laurence Harvey], Джанет Лі [Janet Leigh], Анджела Ленсбері [Angela Lansbury], Генрі Сільва [Henry Silva], Джеймс Ґреґорі [James Gregory], Леслі Перріш [Leslie Parrish], Джон МакҐайвер [John McGiver], Най Діех [Khigh Dhiegh], Джеймс Едвардс [James Edwards]

Сюжет:
В 1952 році під час Корейської війни загін американських солдатів потрапляє в оточення і лише дивом врятувалися дев'ять чоловік під командуванням Раймонда Шоу. Повернувшись до США Раймонд Шоу отримує Медаль Пошани за героїчний вчинок, однак він не пам'ятає як врятував свій загін.
Через деякий час солдати загону Раймонда Шоу починають бачити однакові кошмари...

Знято за однойменним романом Річарда Кондона.


Тривалість: 02:06:56
Якість: Remux 1080p [Criterion Collection]
Відео:
кодек:
розмір кадру: 1920 х 1080
бітрейт: 34,9 Mб/с

Аудіо # 1:
мова: українська
переклад: двоголосий закадровий
кодек: 2.0
бітрейт: 192 кб/с
Про озвучення:
Аудіо # 2:
мова: англійська
переклад: оригінал | MGM
кодек: -HD MA 5.1
бітрейт: 2985 кб/с

Аудіо # 3:
мова: англійська
переклад: оригінал | MGM
кодек: 5.1
бітрейт: 384 кб/с

Аудіо # 4:
мова: англійська
переклад: оригінал | Criterion
кодек: 1.0
бітрейт: 607 кб/с

Аудіо # 5:
мова: англійська
переклад: коментарі режисера Джона Франкенгеймера
кодек: 2.0
бітрейт: 192 кб/с

Субтитри # 1-2: (Full) | (SDH)
мова: англійська
тип: програмні (м'які)
формат: *.srt

Збережено оригінальні розділи, як на Blu-ray.
Info
General
Unique ID : 164275132086454632649350079327449905618 (0x7B963D5672C7130426ABC9E4915FF9D2)
Complete name : I:\+ Фільми в HD\трилер, детектив\The Manchurian Candidate (1962) Remux 1080p [Criterion] UkrEng Sub Eng [Hurtom].
Format :
Format version : Version 4
File size : 34.8 GiB
Duration : 2 h 7 min
Overall bit rate mode : Variable
Overall bit rate : 39.3 Mb/s
Movie name : Манжурський кандитат / The Manchurian Candidate (1962) Remux 1080p [Criterion Collection] Ukr/Eng | Sub Eng [Hurtom]
Encoded date : UTC 2020-01-14 09:23:27
Writing application : v25.0.0 ('Prog Noir') 64-bit
Writing library : libebml v1.3.6 + v1.4.9
Cover : Yes
Attachments : cover.jpg

Video
ID : 1
Format : AVC
Format/Info : Advanced Video Codec
Format profile : [email protected]
Format settings : CABAC / 4 Ref Frames
Format settings, CABAC : Yes
Format settings, Reference fra : 4 frames
Codec ID : V_MPEG4/ISO/AVC
Duration : 2 h 6 min
Bit rate mode : Variable
Bit rate : 34.9 Mb/s
Maximum bit rate : 37.0 Mb/s
Width : 1 920 pixels
Height : 1 080 pixels
Display aspect ratio : 16:9
Frame rate mode : Constant
Frame rate : 23.976 (24000/1001) FPS
Color space : YUV
Chroma subsampling : 4:2:0
Bit depth : 8 bits
Scan type : Progressive
Bits/(Pixel*Frame) : 0.702
Stream size : 31.0 GiB (89%)
Title : The Manchurian Candidate (1962) Remux 1080p [Criterion Collection] Ukr/Eng | Sub Eng [Hurtom]
Language : Ukrainian
Default : Yes
Forced : Yes

Audio #1
ID : 2
Format : AC-3
Format/Info : Audio Coding 3
Codec ID : A_AC3
Duration : 2 h 6 min
Bit rate : 192 kb/s
Channel(s) : 2 channels
Sampling rate : 48.0 kHz
Frame rate : 31.250 FPS (1536 SPF)
Compression mode : Lossy
Stream size : 174 MiB (0%)
Title : DVO [ENTER] 2.0
Language : Ukrainian
Default : Yes
Forced : Yes

Audio #2
ID : 3
Format : XLL
Format/Info : Digital Theater Systems
Commercial name : -HD Master Audio
Codec ID : A_DTS
Duration : 2 h 6 min
Bit rate mode : Variable
Bit rate : 2 985 kb/s
Channel(s) : 6 channels
Channel layout : C L R Ls Rs LFE
Sampling rate : 48.0 kHz
Frame rate : 93.750 FPS (512 SPF)
Bit depth : 24 bits
Compression mode : Lossless
Stream size : 2.65 GiB (8%)
Title : Original -HD MA 5.1 | MGM
Language : English
Default : No
Forced : No

Audio #3
ID : 4
Format : AC-3
Format/Info : Audio Coding 3
Codec ID : A_AC3
Duration : 2 h 6 min
Bit rate : 384 kb/s
Channel(s) : 6 channels
Sampling rate : 48.0 kHz
Frame rate : 31.250 FPS (1536 SPF)
Compression mode : Lossy
Stream size : 348 MiB (1%)
Title : Original 5.1 | MGM
Language : English
Default : No
Forced : No

Audio #4
ID : 5
Format :
Format/Info : Free Lossless Audio Codec
Codec ID : A_FLAC
Duration : 2 h 6 min
Bit rate mode : Variable
Bit rate : 607 kb/s
Channel(s) : 1 channel
Channel layout : C
Sampling rate : 48.0 kHz
Frame rate : 11.719 FPS (4096 SPF)
Bit depth : 24 bits
Compression mode : Lossless
Stream size : 552 MiB (2%)
Title : Original 1.0 | Criterion
Writing library : libFLAC 1.2.1 (UTC 2007-09-17)
Language : English
Default : No
Forced : No

Audio #5
ID : 6
Format : AC-3
Format/Info : Audio Coding 3
Commercial name : Dolby Digital
Codec ID : A_AC3
Duration : 2 h 6 min
Bit rate mode : Constant
Bit rate : 192 kb/s
Channel(s) : 1 channel
Channel layout : C
Sampling rate : 48.0 kHz
Frame rate : 31.250 FPS (1536 SPF)
Bit depth : 16 bits
Compression mode : Lossy
Stream size : 174 MiB (0%)
Title : Commentary with Director John Frankenheimer
Language : English
Service kind : Complete Main
Default : No
Forced : No

Text #1
ID : 7
Format : UTF-8
Codec ID : S_TEXT/UTF8
Codec ID/Info : UTF-8 Plain Text
Duration : 2 h 4 min
Bit rate : 69 b/s
Count of elements : 1490
Stream size : 63.3 KiB (0%)
Title : Eng (Full)
Language : English
Default : No
Forced : No

Text #2
ID : 8
Format : UTF-8
Codec ID : S_TEXT/UTF8
Codec ID/Info : UTF-8 Plain Text
Duration : 2 h 5 min
Bit rate : 76 b/s
Count of elements : 1857
Stream size : 70.4 KiB (0%)
Title : Eng (SDH)
Language : English
Default : No
Forced : No

Menu
00:00:00.000 : en:00:00:00.000
00:06:24.593 : en:00:06:24.593
00:11:13.673 : en:00:11:13.673
00:17:43.062 : en:00:17:43.062
00:22:41.360 : en:00:22:41.360
00:26:20.078 : en:00:26:20.078
00:30:16.857 : en:00:30:16.857
00:35:12.319 : en:00:35:12.319
00:38:18.713 : en:00:38:18.713
00:48:23.734 : en:00:48:23.734
00:54:46.033 : en:00:54:46.033
00:57:47.881 : en:00:57:47.881
01:03:08.201 : en:01:03:08.201
01:15:11.674 : en:01:15:11.674
01:20:25.571 : en:01:20:25.571
01:30:03.023 : en:01:30:03.023
01:35:42.737 : en:01:35:42.737
01:40:23.226 : en:01:40:23.226
01:50:17.611 : en:01:50:17.611
01:54:01.752 : en:01:54:01.752
Скріншоти
Джерело: &
Подяка п. POMEO за запис звуку з ТБ та п. Gelios за зведення
Особиста оцінка: 10 - без зайвих вагань рекомендую всім!


Золотий реліз (завантажене не впливає на рейтинг)
 Трекер:    Зареєстрований   

Завантажити / скачати фільм українською



відео для новачків



 Зареєстрований:   2020-01-15 01:30
 Розмір:   34.82 GB 
 Оцінка фільму:   10/10 (Голосів: 6)
   
lightinsight 
Свій


З нами з: 07.04.14
Востаннє: 22.09.20
Повідомлень: 128

2020-01-15 04:37  
Як це так Сінатра у головній ролі і жодної світлини з ним?
+380954897458 
VIP


З нами з: 02.06.17
Востаннє: 18.09.20
Повідомлень: 942

2020-01-15 23:55  
lightinsight
Він аж на двох світлинах.

pankos 
Частий відвідувач


З нами з: 16.01.11
Востаннє: 21.09.20
Повідомлень: 36

2020-01-19 00:18  
Дуже слабкий фільм. Сценарій неоковирний, режисерська робота бажає кращого, актори грають так собі. Жаль витраченого часу. Я вважаю що викладати потрібні старі фільми не нижче певного рівня.
+380954897458 
VIP


З нами з: 02.06.17
Востаннє: 18.09.20
Повідомлень: 942

2020-01-19 00:55  
pankos
Пане, вибачте, але Ви написали повну ахінею. Це шедевральне жанрове кіно, зразок для наслідування сучасним режисерам і сценаристам. От рімейк якраз і підходить під Ваш опис. Якщо ця стрічка Вам не сподобалася, то це проблема у Вашому сприйнятті ( чи баченні, чи смаку), але ніяк не проблема у стрічці. Єдина річ, яка викликає певне несприйняття - Генрі Сільва у ролі корейця. Ну який із нього, в біса, азіат? Але в ті часи азіатів часто грали європейці, які навіть у гримі та з примруженими очима не були на них схожі. Мабуть тоді справжніх азіатів у Голівуді бракувало. Wide grin

kryk-v.ya. 
Попереджень: 1
Попереджень: 1 


З нами з: 14.02.14
Востаннє: 22.09.20
Повідомлень: 2240

2020-01-19 16:22  
+380954897458 написано:
От рімейк якраз і підходить під Ваш опис.

на що це Ви натякаєте? тобто 50 людей які скачали цей римейк повні дурні? а Дензел Вашингтон, Лів Шрайбер, та Меріл Стріп - взагалі повні лохи, що в ньому знімались? до речі оскароносні актори на хвилиночку...

+380954897458 
VIP


З нами з: 02.06.17
Востаннє: 18.09.20
Повідомлень: 942

2020-01-19 19:29  
kryk-v.ya.
Ні, ну я ж не казав всього того, що Ви мені приписуєте. Мені рімейк зовсім не сподобався, він не зрівняється з оригіналом, хоча й зняв його постановник супертрилера "Мовчання ягнят". Цьому фільму рімейк не потрібен був, як і багатьом іншим чудовим фільмам минулого, таким як "Напад на 13-й поліцейський відділ", "Захоплення потягу Пелхем 123", "Метелик" та ін. Хоча, я знаю, особисто Ви любите ті рімейки. Я ж навпаки - віддаю перевагу оригіналам.

kryk-v.ya. 
Попереджень: 1
Попереджень: 1 


З нами з: 14.02.14
Востаннє: 22.09.20
Повідомлень: 2240

2020-01-19 20:40  
+380954897458 написано:
Хоча, я знаю, особисто Ви любите ті рімейки. Я ж навпаки - віддаю перевагу оригіналам.

дякую...Метелик якраз мені старий подобається, а новий я навіть і не пробував дивитись.

+380954897458 
VIP


З нами з: 02.06.17
Востаннє: 18.09.20
Повідомлень: 942

2020-01-20 01:02  
kryk-v.ya.
Я теж нового "Метелика" не дивився (і дивитися ніколи не буду), але я його заочно ненавиджу. Який би не був технічно і візуально довершений новий фільм, він ніяк не покращить старого шедевру, бо його не потрібно покращувати. Тим більше, коли замість Стіва супер-мать-його МакКвіна є убогий Чарлі Хенем!

примхар 
Новенький


З нами з: 01.06.17
Востаннє: 20.09.20
Повідомлень: 2

2020-01-22 19:52  
Прикметник "Маньчжурський" має ще варіанти, у тому числі і такий , що у заголовку, як застаріла форма. Маю сумнів, що автор саме цей варіант обрав навмисно. Бо наступне слово "Кандидат" чомусь з двома літерами "т"...
MakRA 
VIP


З нами з: 11.11.18
Востаннє: 22.09.20
Повідомлень: 1119

2020-01-22 20:12  
примхар написано:
Прикметник "Маньчжурський" має ще варіанти, у тому числі і такий , що у заголовку, як застаріла форма. Маю сумнів, що автор саме цей варіант обрав навмисно

...як озвучила студія... маю сумніви, що Ви переглядали фільм і звернули увагу на назву при перекладі...

Ваш часовий пояс: GMT + 2 Години

Нова тема   Відповісти