Сім'я крамничних злодіїв (Крамничні злодюжки, 万引き家族, Shoplifters) / Manbiki Kazoku (2018) 1080p Ukr/Jap | Sub Ukr/Eng

Нові коментарі

Нова тема   Відповісти
Автор Повідомлення
Anonymous 







2020-01-14 23:06  
Сім'я крамничних злодіїв (Крамничні злодюжки, 万引き家族, Shoplifters) / Manbiki Kazoku (2018) 1080p Ukr/Jap | Sub Ukr/Eng

Сім'я крамничних злодіїв (Крамничні злодюжки, 万引き家族, Shoplifters) / Manbiki Kazoku (2018) 1080p Ukr/Jap | Sub Ukr/Eng


Жанр: драма, кримінальний
Країна: Японія
Кінокомпанія: AOI Promotion, Fuji Television Network, GAGA
Режисер: Хірокадзу Корееда
Актори: Кірін Кікі, Рирі Френкі, Сосуке Ікемацу та інші.

Сюжет:
Невелика сім'я бідного японського робітника Осами живе практично лише на пенсію бабусі, тому деякі з родичів іноді займаються дрібними крадіжками в крамницях. Якось, повертаючись додому після чергової крадіжки, глава сімейства підбирає на вулиці маленьку змерзлу дівчинку. Дружина зустрічає знахідку нерадісно, проте приймає дитину. Скромне фінансове становище не заважає дружній сім'ї жити щасливо, але раптом по телевізору вони бачать оголошення про зниклу дівчинку, і з цієї миті в їхньому житті починаються серйозні проблеми.

Тривалість: 02:00:52
Якість:

Відео:
кодек:
розмір кадру: 1920 x 1038
бітрейт: 13 501 кб/с

Аудіо # 1:
мова: українська
переклад: багатоголосий закадровий | AniTube.in.ua
кодек: 5.1
бітрейт: 1510 кб/с
Про озвучення
Джерело: AniTube.in.ua
Переклад: Areyssword
Редакція: Mormor
Ролі озвучували: Artymko, VasylТ, Aрія Лев
Таймінг звуку: KohinSan
Робота зі звуком: VasylТ
Створення доріжки: Electroz
Аудіо # 2:
мова: японська
переклад: оригінал
кодек: 5.1
бітрейт: 1510 кб/с

Субтитри # 1-2: (Forced (Переклад: Areyssword, Редакція: Mormor (Signs)), Full (Переклад: Areyssword, Редакція: Mormor))
мова: українська
тип: програмні (м'які)
формат: *.

Субтитри # 3: (Full)
мова: англійська
тип: програмні (м'які)
формат: *.srt


Info
Код:
General
Unique ID                                : 334040762717020647838982623909717704062 (0xFB4DE9275299B567B5FA5341D23F7D7E)
Complete name                            : Manbiki Kazoku (2018) 1080p [UKR_JPN] [Hurtom].
Format                                   :
Format version                           : Version 4
File size                                : 13.9 GiB
Duration                                 : 2 h 0 min
Overall bit rate                         : 16.5 Mb/s
Movie name                               : Сім'я крамничних злодіїв (Крамничні злодюжки, 万引き家族, Shoplifters) / Manbiki Kazoku (2018)
Encoded date                             : UTC 2020-01-19 09:53:03
Writing application                      : v20.0.0 ('I Am The Sun') 64-bit
Writing library                          : libebml v1.3.5 + v1.4.8
Cover                                    : Yes
Attachments                              : cover.jpg

Video
ID                                       : 1
Format                                   : AVC
Format/Info                              : Advanced Video Codec
Format profile                           : [email protected]
Format settings                          : CABAC / 4 Ref Frames
Format settings, CABAC                   : Yes
Format settings, Reference frames        : 4 frames
Codec ID                                 : V_MPEG4/ISO/AVC
Duration                                 : 2 h 0 min
Bit rate                                 : 13.5 Mb/s
Width                                    : 1 920 pixels
Height                                   : 1 038 pixels
Display aspect ratio                     : 1.85:1
Frame rate mode                          : Constant
Frame rate                               : 23.976 (24000/1001) FPS
Color space                              : YUV
Chroma subsampling                       : 4:2:0
Bit depth                                : 8 bits
Scan type                                : Progressive
Bits/(Pixel*Frame)                       : 0.283
Stream size                              : 11.4 GiB (82%)
Title                                    : Сім'я крамничних злодіїв (Крамничні злодюжки, 万引き家族, Shoplifters) / Manbiki Kazoku (2018)
Writing library                          : core 152 r2851kMod ba24899
Encoding settings                        : cabac=1 / ref=4 / deblock=1:-3:-3 / analyse=0x3:0x133 / me=umh / subme=11 / psy=1 / fade_compensate=0.00 / psy_rd=1.05:0.00 / mixed_ref=1 / me_range=48 / chroma_me=1 / trellis=2 / 8x8dct=1 / cqm=0 / deadzone=21,11 / fast_pskip=0 / chroma_qp_offset=-2 / threads=24 / lookahead_threads=4 / sliced_threads=0 / nr=0 / decimate=0 / interlaced=0 / bluray_compat=0 / constrained_intra=0 / bframes=8 / b_pyramid=2 / b_adapt=2 / b_bias=0 / direct=3 / weightb=1 / open_gop=0 / weightp=2 / keyint=240 / keyint_min=2 / scenecut=40 / intra_refresh=0 / rc=2pass / mbtree=0 / bitrate=13500 / ratetol=1.0 / qcomp=0.70 / qpmin=0 / qpmax=69 / qpstep=4 / cplxblur=20.0 / qblur=0.5 / ip_ratio=1.30 / pb_ratio=1.20 / aq=3:0.80
Language                                 : English
Default                                  : Yes
Forced                                   : No

Audio #1
ID                                       : 2
Format                                   :
Format/Info                              : Digital Theater Systems
Codec ID                                 : A_DTS
Duration                                 : 2 h 0 min
Bit rate mode                            : Constant
Bit rate                                 : 1 509 kb/s
Channel(s)                               : 6 channels
Channel layout                           : C L R Ls Rs LFE
Sampling rate                            : 48.0 kHz
Frame rate                               : 93.750 FPS (512 SPF)
Bit depth                                : 24 bits
Compression mode                         : Lossy
Stream size                              : 1.27 GiB (9%)
Title                                    : / 5.1 Ch / 1509 kbps / БЗ / AniTube.in.ua / Artymko, VasylT, Арія Лев
Language                                 : Ukrainian
Default                                  : Yes
Forced                                   : Yes

Audio #2
ID                                       : 3
Format                                   :
Format/Info                              : Digital Theater Systems
Codec ID                                 : A_DTS
Duration                                 : 2 h 0 min
Bit rate mode                            : Constant
Bit rate                                 : 1 509 kb/s
Channel(s)                               : 6 channels
Channel layout                           : C L R Ls Rs LFE
Sampling rate                            : 48.0 kHz
Frame rate                               : 93.750 FPS (512 SPF)
Bit depth                                : 24 bits
Compression mode                         : Lossy
Stream size                              : 1.27 GiB (9%)
Title                                    : / 5.1 Ch / 1509 kbps / Original
Language                                 : Japanese
Default                                  : No
Forced                                   : No

Text #1
ID                                       : 4
Format                                   :
Codec ID                                 : S_TEXT/
Codec ID/Info                            : Advanced Sub Station Alpha
Duration                                 : 1 h 56 min
Bit rate                                 : 1 b/s
Count of elements                        : 12
Compression mode                         : Lossless
Stream size                              : 1.03 KiB (0%)
Title                                    : Forced (Переклад: Areyssword, Редакція: Mormor (Signs))
Language                                 : Ukrainian
Default                                  : Yes
Forced                                   : Yes

Text #2
ID                                       : 5
Format                                   :
Codec ID                                 : S_TEXT/
Codec ID/Info                            : Advanced Sub Station Alpha
Duration                                 : 1 h 56 min
Bit rate                                 : 91 b/s
Count of elements                        : 1223
Compression mode                         : Lossless
Stream size                              : 77.8 KiB (0%)
Title                                    : Full (Переклад: Areyssword, Редакція: Mormor)
Language                                 : Ukrainian
Default                                  : No
Forced                                   : No

Text #3
ID                                       : 6
Format                                   : UTF-8
Codec ID                                 : S_TEXT/UTF8
Codec ID/Info                            : UTF-8 Plain Text
Duration                                 : 1 h 54 min
Bit rate                                 : 35 b/s
Count of elements                        : 1296
Stream size                              : 30.1 KiB (0%)
Title                                    : Full
Language                                 : English
Default                                  : No
Forced                                   : No

Menu
00:00:00.000                             : en:
00:11:23.598                             : en:
00:21:54.604                             : en:
00:31:08.616                             : en:
00:38:49.160                             : en:
00:51:31.296                             : en:
01:01:01.073                             : en:
01:11:53.767                             : en:
01:21:42.898                             : en:
01:30:02.854                             : en:
01:46:44.981                             : en:
01:57:06.227                             : en:
02:00:51.787                             : en:
Світлини




Джерело: &
Особиста оцінка: 0 - не дивився


Авторський реліз (завантажувати можна без реєстрації)
 Трекер:    Зареєстрований   

Завантажити / скачати фільм українською



відео для новачків



 Зареєстрований:   2020-01-19 13:14
 Розмір:   13.93 GB 
 Оцінка фільму:   9.8/10 (Голосів: 16)
   
Maters 
Відео Гуртом - підтримка та поширення
Відео Гуртом - підтримка та поширення


З нами з: 27.03.12
Востаннє: 30.09.20
Повідомлень: 2292

2020-01-15 15:55  
+AVC
igor911 
Модератор відео


З нами з: 18.01.08
Востаннє: 30.09.20
Повідомлень: 15008

2020-01-15 15:56  
Maters, а сенс, якщо 720ка з бітрейтом 1698 кб/с?
Maters 
Відео Гуртом - підтримка та поширення
Відео Гуртом - підтримка та поширення


З нами з: 27.03.12
Востаннє: 30.09.20
Повідомлень: 2292

2020-01-15 15:58  
Відміна
Anonymous 







2020-01-19 13:15  
Заміна укр. доріжки з 2.0 -> 5.1
Electroz 
Відео Гуртом - підтримка та поширення
Відео Гуртом - підтримка та поширення


З нами з: 18.09.14
Востаннє: 30.09.20
Повідомлень: 4034

2020-01-19 13:51  
Anonymous
Треба було додати ще 448 kbps, бо не у всіх читає.

Ваш часовий пояс: GMT + 2 Години

Нова тема   Відповісти