Мессі і Мод (Голландка) / Messi and Maud (La Holandesa) (2017) -AVC Ukr/Spa | Sub Ukr

Нові коментарі

Нова тема   Відповісти
Автор Повідомлення
ArtymKo 
Новенький


З нами з: 14.01.20
Востаннє: 03.07.20
Повідомлень: 21

2020-01-14 20:36  
Мессі і Мод (Голландка) / Messi and Maud (La Holandesa) (2017) -AVC Ukr/Spa | Sub Ukr

Мессі і Мод (Голландка) / Messi and Maud (La Holandesa) (2017) -AVC Ukr/Spa | Sub Ukr


Жанр: драма
Країна: Нідерланди, Німеччина



Кінокомпанія: Smarthouse Films, FATT Productions, Leitwolf TV- und Filmproduktion
Режисер: Marleen Jonkman
Актори: Rifka Lodeizen, Cristobal Farias, Guido Pollemans

Сюжет:
Мод і Франк вирушають у подорож до Чилі. Їхні стосунки "підкошені", як і здоров'я Мод. Після багатьох років спроб завагітніти настав час визнати те, що вони ніколи не матимуть дітей. Але Мод не бажає здаватися. Після гучної сварки з Франком вона тікає від нього та вирушає в подорож по Чилі, під час якої знайомиться з хлопчиком на ім'я Мессі. Це випадкове знайомство перетворюється на невеличку пригоду на тлі неймовірних пейзажів та на шляху до нових життєвих звершень.


Тривалість: 01:32:18
Якість:
Відео:
кодек:
розмір кадру: 720 х 300
бітрейт: 628 кб/с

Аудіо # 1:
мова: українська
переклад: багатоголосий закадровий (ArtymKo)
кодек: 2.0
бітрейт: 192 кб/с

Аудіо # 2:
мова: іспанська, англійська, нідерландська
переклад: оригінал
кодек: 2.0
бітрейт: 122 кб/с

Субтитри:
мова: українська (написи)
тип: програмні (м'які)
формат: *.

Субтитри:
мова: українська (повні)
тип: програмні (м'які)
формат: *.
Info
General
Unique ID : 169956315353611674040700532580140572951 (0x7FDC654C72300BFE8FC182F9BCBDE117)
Complete name : D:\Videos\Мессі та Мод (Голландка) (2017)\[ArtymKo] Мессі і Мод (Голландка) (2017).
Format :
Format version : Version 4
File size : 624 MiB
Duration : 1 h 32 min
Overall bit rate : 945 kb/s
Movie name : [ArtymKo] Мессі і Мод (Голландка) (2017)
Encoded date : UTC 2020-01-14 15:57:37
Writing application : v42.0.0 ('Overtime') 64-bit
Writing library : libebml v1.3.10 + v1.5.2
Cover : Yes
Attachments : cover3.jpg

Video
ID : 1
Format : AVC
Format/Info : Advanced Video Codec
Format profile : [email protected]
Format settings : CABAC / 5 Ref Frames
Format settings, CABAC : Yes
Format settings, Reference : 5 frames
Codec ID : V_MPEG4/ISO/AVC
Duration : 1 h 32 min
Bit rate : 628 kb/s
Width : 720 pixels
Height : 300 pixels
Display aspect ratio : 2.40:1
Frame rate mode : Constant
Frame rate : 23.976 (24000/1001) FPS
Color space : YUV
Chroma subsampling : 4:2:0
Bit depth : 8 bits
Scan type : Progressive
Bits/(Pixel*Frame) : 0.121
Stream size : 415 MiB (66%)
Writing library : core 155 r2901 7d0ff22
Encoding settings : cabac=1 / ref=5 / deblock=1:0:0 / analyse=0x3:0x113 / me=hex / subme=8 / psy=1 / psy_rd=1.00:0.00 / mixed_ref=1 / me_range=16 / chroma_me=1 / trellis=2 / 8x8dct=1 / cqm=0 / deadzone=21,11 / fast_pskip=1 / chroma_qp_offset=-2 / threads=9 / lookahead_threads=1 / sliced_threads=0 / nr=0 / decimate=1 / interlaced=0 / bluray_compat=0 / constrained_intra=0 / bframes=3 / b_pyramid=2 / b_adapt=1 / b_bias=0 / direct=3 / weightb=1 / open_gop=0 / weightp=2 / keyint=240 / keyint_min=23 / scenecut=40 / intra_refresh=0 / rc_lookahead=50 / rc=crf / mbtree=1 / crf=19.0 / qcomp=0.60 / qpmin=10 / qpmax=51 / qpstep=4 / vbv_maxrate=17500 / vbv_bufsize=17500 / crf_max=0.0 / nal_hrd=none / filler=0 / ip_ratio=1.40 / aq=1:1.00
Language : English
Default : Yes
Forced : No

Audio #1
ID : 2
Format : AC-3
Format/Info : Audio Coding 3
Commercial name : Dolby Digital
Codec ID : A_AC3
Duration : 1 h 32 min
Bit rate mode : Constant
Bit rate : 192 kb/s
Channel(s) : 2 channels
Channel layout : L R
Sampling rate : 48.0 kHz
Frame rate : 31.250 FPS (1536 SPF)
Compression mode : Lossy
Stream size : 127 MiB (20%)
Title : Artymko, Uta, Lomaev
Language : Ukrainian
Service kind : Complete Main
Default : Yes
Forced : Yes

Audio #2
ID : 3
Format : LC
Format/Info : Advanced Audio Codec Low Complexity
Codec ID : A_AAC-2
Duration : 1 h 32 min
Bit rate : 122 kb/s
Channel(s) : 2 channels
Channel layout : L R
Sampling rate : 48.0 kHz
Frame rate : 46.875 FPS (1024 SPF)
Compression mode : Lossy
Delay relative to video : 9 ms
Stream size : 80.4 MiB (13%)
Title : Оригінальна
Language : Spanish
Default : No
Forced : No

Text #1
ID : 4
Format :
Codec ID : S_TEXT/
Codec ID/Info : Advanced Sub Station Alpha
Duration : 24 s 450 ms
Bit rate : 185 b/s
Count of elements : 5
Compression mode : Lossless
Stream size : 566 Bytes (0%)
Title : Написи (artekinofestival, Mormor)
Language : Ukrainian
Default : Yes
Forced : Yes

Text #2
ID : 5
Format :
Codec ID : S_TEXT/
Codec ID/Info : Advanced Sub Station Alpha
Duration : 1 h 27 min
Bit rate : 55 b/s
Count of elements : 580
Compression mode : Lossless
Stream size : 35.2 KiB (0%)
Title : Повні (artekinofestival, Mormor)
Language : Ukrainian
Default : No
Forced : No
Скріншоти




Реліз: Команда озвучення «ArtymKo»
Переклад: artekinofestival
Редакція: Mormor
Ролі озвучували: Artymko, Uta, Lomaev (MelodicVoiceStudio)
Таймінг звуку: KohinSan
Робота зі звуком: Electroz
Підтримати команду можна за посиланням на цій сторінці. Не забудьте вказати назву проєкту (наприклад, «Мессі і Мод») і, за бажання, своє ім'я або нік.
________________
Замовити озвучення
Наші роботи
Telegram


Авторський реліз (завантажувати можна без реєстрації)
 Трекер:    Зареєстрований   

Завантажити / скачати фільм українською



відео для новачків



 Зареєстрований:   2020-01-14 20:36
 Розмір:   624 MB 
 Оцінка фільму:   8.1/10 (Голосів: 7)
   
000ps 
Частий відвідувач


З нами з: 08.07.14
Востаннє: 01.07.20
Повідомлень: 31

2020-01-25 12:13  
що за фігня - завантажене не впливає на рейтинг - а в мене впливає?
не те щоб я бідкався, просто цікаво.

Іван Обабич 
Новенький


З нами з: 09.10.19
Востаннє: 10.06.20
Повідомлень: 8

2020-01-28 19:40  
Цей фільм не про неймовірні чілійські пейзажі, а про неймовірний відчай жінки, яка втратила надію мати власну дитину. Така жінка перетворюєьбся на шалену руйнівницю - і свого власного життя, і життя своїх близьких. Я такого відвертого фільму про справжню жінку ще не бачив, адже у нас зараз у тренді фільми про бізнес-деді, яким діти по барабану.
Ваш часовий пояс: GMT + 2 Години

Нова тема   Відповісти