Руки геть від Клубу Анімації! | Eizouken ni wa Te wo Dasu na! | Keep Your Hands Off Eizouken! | 映像研には手を出すな! (12 з 12) (2020) 720p Jap | sub Ukr/Eng

Нові коментарі

Нова тема   Відповісти
Автор Повідомлення
bodja2 
Частий відвідувач


З нами з: 19.05.13
Востаннє: 22.05.20
Повідомлень: 29

2020-01-14 19:11  
Руки геть від Клубу Анімації! | Eizouken ni wa Te wo Dasu na! | Keep Your Hands Off Eizouken! | 映像研には手を出すな! (12 з 12) (2020) 720p Jap | sub Ukr/Eng

Руки геть від Клубу Анімації! | Eizouken ni wa Te wo Dasu na! | Keep Your Hands Off Eizouken! | 映像研には手を出すな! (12 з 12) (2020) 720p Jap | sub Ukr/Eng

Країна: Японія
Рік: 2020 (зима)
Студія: Science SARU
Режисер: Масаакі Юаса
Жанри: Комедія, Пригоди, Сейнен, Школа

Тип: ТБ-серіал 7.07 (46 голосів)
MyAnimeList
8.19 (6 776 голосів)
Джерело: ,
Переклад: K0wbassa

Опис:
Асакуса Мідорі хоче створити аніме, але вона зандто збентежена, щоб зробити перший крок сама. Одного разу вона випадково зусрічає Мідзусакі Цубаме, яка таємно мріє стати аніматором. Разом з кращою подругою Мідорі, Канаморі Саякою, енергійне тріо старанно працюватиме над втіленням свого "неймовірного світу" в реальність.

Відео:
Тривалість: 1 серія: ~ 25:00 (цілком серій: ?)
Якість: 720p
Відео:
Кодек:
Розмір кадру:1280х720
Бітрейт: 4000 Кбіт/с

Аудіо:
мова: японська
Переклад: оригінал
Кодек:
канали: 2 (стерео)
бітрейт: 128 Кбіт/сек

Субтитри: (авторський переклад)
мова: українська
Тип: вбудовані (м'які)
Формат: .

Субтитри:
мова: англійська
Тип: вбудовані (м'які)
Формат: .
Список серій:

01. Дивовижний світ!
02. Клуб виходить на сцену!
03. Зробімо щось разом!
04. Тримай мачете міцно!
05. Зустрічайте сталевого гіганта!
06. Треба розвиватися і рухатись вперед!
07. Я роблю це заради себе!
08. Великий Фестиваль Шібахами!
09. Наша мета Comet-A!
10. Проти нашого Неймовірного Світу!
11. Існування усіх і Кожного!
12. Війна світів у Шібахамі!
Скріншоти






Info

General
Unique ID : 175072230401463371318709834729201705569 (0x83B5AF6274FB4404AF02383B8A65A261)
Complete name : D:\Завантаження\Eizouken ni wa Te wo Dasu na! (Ukr Sub)\[K0wbassa] Eizouken ni wa Te wo Dasu na! - 01 [720p].
Format :
Format version : Version 4 / Version 2
File size : 735 MiB
Duration : 25 min 0 s
Overall bit rate : 4 111 kb/s
Encoded date : UTC 2020-01-13 21:43:10
Writing application : v27.0.0 ('Metropolis') 64-bit
Writing library : libebml v1.3.6 + v1.4.9
Attachments : OpenSans-Semibold.ttf

Video
ID : 1
Format : AVC
Format/Info : Advanced Video Codec
Format profile : [email protected]
Format settings, CABAC : Yes
Format settings, ReFrames : 6 frames
Codec ID : V_MPEG4/ISO/AVC
Duration : 24 min 59 s
Bit rate : 4 000 kb/s
Width : 1 280 pixels
Height : 720 pixels
Display aspect ratio : 16:9
Frame rate mode : Constant
Frame rate : 23.976 (24000/1001) FPS
Color space : YUV
Chroma subsampling : 4:2:0
Bit depth : 8 bits
Scan type : Progressive
Bits/(Pixel*Frame) : 0.181
Stream size : 712 MiB (97%)
Writing library : core 142
Encoding settings : cabac=1 / ref=6 / deblock=1:1:1 / analyse=0x3:0x113 / me=umh / subme=8 / psy=1 / psy_rd=0.40:0.00 / mixed_ref=1 / me_range=16 / chroma_me=1 / trellis=1 / 8x8dct=1 / cqm=0 / deadzone=21,11 / fast_pskip=1 / chroma_qp_offset=-2 / threads=10 / lookahead_threads=1 / sliced_threads=0 / nr=0 / decimate=1 / interlaced=0 / bluray_compat=0 / constrained_intra=0 / bframes=0 / weightp=2 / keyint=96 / keyint_min=48 / scenecut=40 / intra_refresh=0 / rc_lookahead=48 / rc=2pass / mbtree=1 / bitrate=4000 / ratetol=1.0 / qcomp=0.60 / qpmin=0 / qpmax=69 / qpstep=4 / cplxblur=20.0 / qblur=0.5 / vbv_maxrate=6000 / vbv_bufsize=9000 / nal_hrd=none / filler=0 / ip_ratio=1.40 / aq=1:0.60
Default : Yes
Forced : No

Audio
ID : 2
Format :
Format/Info : Advanced Audio Codec
Format profile : LC
Codec ID : A_AAC
Duration : 25 min 0 s
Bit rate : 128 kb/s
Channel(s) : 2 channels
Channel positions : Front: L R
Sampling rate : 44.1 kHz
Frame rate : 43.066 FPS (1024 spf)
Compression mode : Lossy
Delay relative to video : 5 ms
Stream size : 22.9 MiB (3%)
Language : Japanese
Default : Yes
Forced : No

Text #1
ID : 3
Format :
Codec ID : S_TEXT/
Codec ID/Info : Advanced Sub Station Alpha
Duration : 24 min 55 s
Bit rate : 209 b/s
Count of elements : 432
Compression mode : Lossless
Stream size : 38.3 KiB (0%)
Title : Ukr Sub
Language : Ukrainian
Default : Yes
Forced : Yes

Text #2
ID : 4
Format :
Codec ID : S_TEXT/
Codec ID/Info : Advanced Sub Station Alpha
Duration : 24 min 55 s
Bit rate : 186 b/s
Count of elements : 434
Compression mode : Lossless
Stream size : 34.0 KiB (0%)
Language : English
Default : No
Forced : No


Золотий реліз (завантажене не впливає на рейтинг)
 Трекер:    Зареєстрований   

Завантажити / скачати аніме українською



відео для новачків



 Зареєстрований:   2020-03-29 17:08
 Розмір:   8.62 GB 
 Оцінка аніме:   9.7/10 (Голосів: 6)
   
bodja2 
Частий відвідувач


З нами з: 19.05.13
Востаннє: 22.05.20
Повідомлень: 29

2020-01-22 01:22  
Додано 3 епізод!!!
Virake 
Localize Team
Localize Team


З нами з: 07.07.09
Востаннє: 06.06.20
Повідомлень: 6926

2020-01-22 04:54  
там в англійській версії було 'adventurer'? якщо так, тоді перекладати як 'авантюристка' не можна, абсолютно інший сенс.
bodja2 
Частий відвідувач


З нами з: 19.05.13
Востаннє: 22.05.20
Повідомлень: 29

2020-03-29 17:12  
додано 4-12 епізоди!!!!!!
Ваш часовий пояс: GMT + 2 Години

Нова тема   Відповісти