Ібіца / Ibiza (2019) Remux 1080p Ukr/Fre | Sub Fre

Нові коментарі

Нова тема   Відповісти
Автор Повідомлення
Anonymous 







2020-01-13 12:27  
Ібіца / Ibiza (2019) Remux 1080p Ukr/Fre | Sub Fre

Ібіца / Ibiza (2019) Remux 1080p Ukr/Fre | Sub Fre


Жанр: комедія
Країна: Франція, Бельгія



Кінокомпанія: Atelier de Production, Gaumont, France 2 Cinéma
Режисер: Арно Лемор
Актори: Крістіан Клав'є, Матільда Сеньє, Пілі Груан, Джоі Старр, Олів'є Маршаль, Фредерік Бель, Луі-До де Ленсквесен

Сюжет:
Філіп пропонує своєму старшому сину угоду: якщо той отримає ступінь бакалавра, то зможе обрати будь-яке місце для відпочинку. Усе виходить якнайкраще, і син обирає острів Ібіца. Філіп без вагань погоджується, навіть не усвідомлюючи, яка це буде авантюра. Адже він звик до спокійного та розміреного життя, а ця відпустка обіцяє бути несамовитою і шокуючою!


Тривалість: 01:26:01
Якість: Remux 1080p
Відео:
кодек:
розмір кадру: 1920x1080
бітрейт: ~31573 Mб/с

Аудіо # 1:
мова: українська
переклад: професійний дубльований
кодек: 2.0
бітрейт: 192 кб/с

Аудіо # 2:
мова: французька
переклад: оригінал
кодек: -HD MA 5.1
бітрейт: 3014 кб/с

Субтитри: (Forced + Full)
мова: французька
тип: програмні (м'які)
формат: *.pgs
Збережено оригінальні розділи, як на Blu-ray.
Info
Код:
General
Complete name                            : Ibiza (2019) Blu-Ray Remux 1080p [Ukr, Fre] [ViDeO_Hurtom].
Format                                   :
Format version                           : Version 4
File size                                : 20.9 GiB
Duration                                 : 1 h 26 min
Overall bit rate mode                    : Variable
Overall bit rate                         : 34.8 Mb/s
Encoded date                             : UTC 2020-01-14 13:35:44
Writing application                      : v30.1.0 ('Forever And More') 64-bit
Writing library                          : libebml v1.3.6 + v1.4.9
Cover                                    : Yes
Attachments                              : cover.png

Video
ID                                       : 1
Format                                   : AVC
Format/Info                              : Advanced Video Codec
Format profile                           : [email protected]
Format settings                          : CABAC / 4 Ref Frames
Format settings, CABAC                   : Yes
Format settings, RefFrames               : 4 frames
Format settings, GOP                     : M=3, N=24
Codec ID                                 : V_MPEG4/ISO/AVC
Duration                                 : 1 h 26 min
Bit rate mode                            : Variable
Bit rate                                 : 31.6 Mb/s
Maximum bit rate                         : 35.0 Mb/s
Width                                    : 1 920 pixels
Height                                   : 1 080 pixels
Display aspect ratio                     : 16:9
Frame rate mode                          : Constant
Frame rate                               : 24.000 FPS
Standard                                 : NTSC
Color space                              : YUV
Chroma subsampling                       : 4:2:0
Bit depth                                : 8 bits
Scan type                                : Progressive
Bits/(Pixel*Frame)                       : 0.634
Stream size                              : 19.0 GiB (91%)
Default                                  : Yes
Forced                                   : No
Color range                              : Limited
Color primaries                          : BT.709
Transfer characteristics                 : BT.709
Matrix coefficients                      : BT.709

Audio #1
ID                                       : 2
Format                                   : AC-3
Format/Info                              : Audio Coding 3
Commercial name                          : Dolby Digital
Codec ID                                 : A_AC3
Duration                                 : 1 h 26 min
Bit rate mode                            : Constant
Bit rate                                 : 192 kb/s
Channel(s)                               : 2 channels
Channel layout                           : L R
Sampling rate                            : 48.0 kHz
Frame rate                               : 31.250 FPS (1536 SPF)
Bit depth                                : 16 bits
Compression mode                         : Lossy
Stream size                              : 118 MiB (1%)
Title                                    : 2.0 | 192
Language                                 : Ukrainian
Service kind                             : Complete Main
Default                                  : Yes
Forced                                   : No

Audio #2
ID                                       : 3
Format                                   : XLL
Format/Info                              : Digital Theater Systems
Commercial name                          : -HD Master Audio
Codec ID                                 : A_DTS
Duration                                 : 1 h 26 min
Bit rate mode                            : Variable
Bit rate                                 : 3 014 kb/s
Channel(s)                               : 6 channels
Channel layout                           : C L R Ls Rs LFE
Sampling rate                            : 48.0 kHz
Frame rate                               : 93.750 FPS (512 SPF)
Bit depth                                : 24 bits
Compression mode                         : Lossless
Stream size                              : 1.81 GiB (9%)
Title                                    : -HD MA 5.1 | 3014
Language                                 : French
Default                                  : No
Forced                                   : No

Text #1
ID                                       : 4
Format                                   : PGS
Muxing mode                              : zlib
Codec ID                                 : S_HDMV/PGS
Codec ID/Info                            : Picture based subtitle format used on BDs/HD-DVDs
Duration                                 : 1 h 5 min
Bit rate                                 : 774 b/s
Count of elements                        : 40
Stream size                              : 374 KiB (0%)
Language                                 : French
Default                                  : Yes
Forced                                   : No

Text #2
ID                                       : 5
Format                                   : PGS
Muxing mode                              : zlib
Codec ID                                 : S_HDMV/PGS
Codec ID/Info                            : Picture based subtitle format used on BDs/HD-DVDs
Duration                                 : 1 h 26 min
Bit rate                                 : 43.9 kb/s
Count of elements                        : 3284
Stream size                              : 27.0 MiB (0%)
Language                                 : French
Default                                  : No
Forced                                   : No
Скріншоти



Джерело:
Особиста оцінка: 8 - мені сподобалося


Золотий реліз (завантажене не впливає на рейтинг)
 Трекер:    Зареєстрований   

Завантажити / скачати фільм українською



відео для новачків



 Зареєстрований:   2020-01-14 17:20
 Розмір:   20.91 GB 
 Оцінка фільму:   9.8/10 (Голосів: 5)
   
Інші релізи
   Ібіца / Ibiza (2019) antik_2008  35 / 1   1.35 GB   2020-01-14 17:19 
   Ібіца / Ibiza (2019) 720p Ukr/Fre staf777  7 / 0   3.84 GB   2020-01-14 13:31 
   Ібіца / Ibiza (2019) 1080p Ukr/Fre staf777  9 / 1   7.57 GB   2020-01-14 12:36 
   Ібіца / Ibiza (2019) AVC Ukr/Fre 11FrYkT  27 / 1   1.48 GB   2020-01-14 10:20 
bot 
робот


З нами з: 30.09.07
Востаннє: 26.05.05
Повідомлень: 23026

2020-01-14 17:20  
Тему перенесено з Анонси релізів до форуму Фільми в HD


antik_2008

Anonymous 







2020-01-14 17:20  
Реліз готовий.
Ваш часовий пояс: GMT + 2 Години

Нова тема   Відповісти