Тільки диво (2019) AVC

Нові коментарі

Нова тема   Відповісти
Автор Повідомлення
Anonymous 







2020-01-12 15:20  
Тільки диво (2019) AVC

Тільки диво (2019) AVC


Жанр: пригодницький, фентезі, сімейний
Країна: Україна



Кінокомпанія: Kazka Production, GloriaFX, Держкіно
Режисер: Олена Каретник
Актори: Георгій Ярмоленко, Марія Тараненко, Євген Нищук, Анжеліка Савченко, Марія Герасименко, В'ячеслав Хостікоєв, Софія Саніна, Наталія Дзеньків, Сергій Озіряний, Петро Миронов та інші.

Сюжет:
Сімнадцятирічний Северин живе разом із родиною в мальовничому гірському місті, яке потерпає від нескінченної зими довгі сім років. Небагатий, проте добрий і сміливий юнак повинен привезти відомого лікаря для батька, який був сильно поранений, рятуючи рідне місто від руйнівного наступаючого льоду. На його шляху багато перешкод: стихійні лиха, таємничі літаючі істоти і безжалісні лиходії.

Бюджет фільму склав 62 млн.грн., з них 44 млн.грн. надало Держкіно.
Офіційні трейлер та відео:

Вікова категорія: 2+

Тривалість: 01:28:30
Якість: AVC

Відео:
кодек:
розмір кадру: 1024х576
бітрейт: 2485 кб/с

Аудіо:
мова: українська
переклад: оригінал
кодек: 2.0 [стерео]
бітрейт: 132 кб/с
Info
Код:

Complete name               : Tilky Dyvo (Only a Miracle) (2019) [Ukr] IPTVRemux [Hurtom].
Format                      :
Format version              : Version 4
File size                   : 1.62 GiB
Duration                    : 1 h 28 min
Overall bit rate mode       : Variable
Overall bit rate            : 2 618 kb/s
Movie name                  : Тільки диво / Only a Miracle (2019) [Ukr] IPTVRemux [Hurtom]
Encoded date                : UTC 2020-01-12 13:24:44
Writing application         : v42.0.0 ('Overtime') 64-bit
Writing library             : libebml v1.3.10 + v1.5.2
Cover                       : Yes
Attachments                 : cover.jpg

Video
ID                          : 1
Format                      : AVC
Format/Info                 : Advanced Video Codec
Format profile              : [email protected]
Format settings             : CABAC / 3 Ref Frames
Format settings, CABAC      : Yes
Format settings, Reference  : 3 frames
Codec ID                    : V_MPEG4/ISO/AVC
Duration                    : 1 h 28 min
Bit rate mode               : Variable
Bit rate                    : 2 485 kb/s
Maximum bit rate            : 2 999 kb/s
Width                       : 1 024 pixels
Height                      : 576 pixels
Display aspect ratio        : 16:9
Frame rate mode             : Constant
Frame rate                  : 25.000 FPS
Color space                 : YUV
Chroma subsampling          : 4:2:0
Bit depth                   : 8 bits
Scan type                   : Progressive
Bits/(Pixel*Frame)          : 0.169
Stream size                 : 1.54 GiB (95%)
Language                    : Ukrainian
Default                     : Yes
Forced                      : No

Audio
ID                          : 2
Format                      : LC
Format/Info                 : Advanced Audio Codec Low Complexity
Codec ID                    : A_AAC-2
Duration                    : 1 h 28 min
Bit rate                    : 132 kb/s
Channel(s)                  : 2 channels
Channel layout              : L R
Sampling rate               : 44.1 kHz
Frame rate                  : 43.066 FPS (1024 SPF)
Compression mode            : Lossy
Stream size                 : 82.5 MiB (5%)
Language                    : Ukrainian
Default                     : Yes
Forced                      : No


Джерело:
Подяка п.PuMa.ua за наданий запис.


Золотий реліз (завантажене не впливає на рейтинг)
 Трекер:    Зареєстрований   

Завантажити / скачати український фільм



відео для новачків



 Зареєстрований:   2020-01-12 15:40
 Розмір:   1.62 GB 
 Оцінка фільму:   9.7/10 (Голосів: 24)
   
Electroz 
Відео Гуртом - підтримка та поширення
Відео Гуртом - підтримка та поширення


З нами з: 18.09.14
Востаннє: 19.01.20
Повідомлень: 3732

2020-01-12 15:56  
Anonymous
Це вебріп з архіву

The Gunslinger 
Свій


З нами з: 08.04.12
Востаннє: 17.01.20
Повідомлень: 101

2020-01-12 21:53  
Хтось дивився? Як фільм?
anastasia.wilder 
Новенький


З нами з: 11.04.19
Востаннє: 14.01.20
Повідомлень: 1

2020-01-13 00:09  
Дякую, але є проблема, що звукова доріжка постійно відстає. Важко дивитись.
Anonymous 







2020-01-13 00:33  
anastasia.wilder написано:
звукова доріжка постійно відстає

перевірив - на ПК все гаразд

jaral 
VIP


З нами з: 18.10.07
Востаннє: 19.01.20
Повідомлень: 981

2020-01-13 02:04  
Цитата:
перевірив - на ПК все гаразд
Те саме і у мене, звук збігається із картинкою, якість якої бажає бути кращим.
jaral 
VIP


З нами з: 18.10.07
Востаннє: 19.01.20
Повідомлень: 981

2020-01-13 05:48  
igor911
Для чого виправляєш мої повідомлення?

Svetik-semitsvetik 
Новенький


З нами з: 06.07.17
Востаннє: 17.01.20
Повідомлень: 22

2020-01-13 15:11  
Давно чекала... Треба подивитись.
Ваш часовий пояс: GMT + 2 Години

Нова тема   Відповісти