Тільки диво (2019) AVC

Нові коментарі

Нова тема   Відповісти
Автор Повідомлення
Anonymous 







2020-01-12 16:20  
Тільки диво (2019) AVC

Тільки диво (2019) AVC


Жанр: пригодницький, фентезі, сімейний
Країна: Україна



Кінокомпанія: Kazka Production, GloriaFX, Держкіно
Режисер: Олена Каретник
Актори: Георгій Ярмоленко, Марія Тараненко, Євген Нищук, Анжеліка Савченко, Марія Герасименко, В'ячеслав Хостікоєв, Софія Саніна, Наталія Дзеньків, Сергій Озіряний, Петро Миронов та інші.

Сюжет:
Сімнадцятирічний Северин живе разом із родиною в мальовничому гірському місті, яке потерпає від нескінченної зими довгі сім років. Небагатий, проте добрий і сміливий юнак повинен привезти відомого лікаря для батька, який був сильно поранений, рятуючи рідне місто від руйнівного наступаючого льоду. На його шляху багато перешкод: стихійні лиха, таємничі літаючі істоти і безжалісні лиходії.

Бюджет фільму склав 62 млн.грн., з них 44 млн.грн. надало Держкіно.
Офіційні трейлер та відео:

Вікова категорія: 2+

Тривалість: 01:28:30
Якість: AVC

Відео:
кодек:
розмір кадру: 1024х576
бітрейт: 2485 кб/с

Аудіо:
мова: українська
переклад: оригінал
кодек: 2.0 [стерео]
бітрейт: 132 кб/с
Info
Код:

Complete name               : Tilky Dyvo (Only a Miracle) (2019) [Ukr] IPTVRemux [Hurtom].
Format                      :
Format version              : Version 4
File size                   : 1.62 GiB
Duration                    : 1 h 28 min
Overall bit rate mode       : Variable
Overall bit rate            : 2 618 kb/s
Movie name                  : Тільки диво / Only a Miracle (2019) [Ukr] IPTVRemux [Hurtom]
Encoded date                : UTC 2020-01-12 13:24:44
Writing application         : v42.0.0 ('Overtime') 64-bit
Writing library             : libebml v1.3.10 + v1.5.2
Cover                       : Yes
Attachments                 : cover.jpg

Video
ID                          : 1
Format                      : AVC
Format/Info                 : Advanced Video Codec
Format profile              : [email protected]
Format settings             : CABAC / 3 Ref Frames
Format settings, CABAC      : Yes
Format settings, Reference  : 3 frames
Codec ID                    : V_MPEG4/ISO/AVC
Duration                    : 1 h 28 min
Bit rate mode               : Variable
Bit rate                    : 2 485 kb/s
Maximum bit rate            : 2 999 kb/s
Width                       : 1 024 pixels
Height                      : 576 pixels
Display aspect ratio        : 16:9
Frame rate mode             : Constant
Frame rate                  : 25.000 FPS
Color space                 : YUV
Chroma subsampling          : 4:2:0
Bit depth                   : 8 bits
Scan type                   : Progressive
Bits/(Pixel*Frame)          : 0.169
Stream size                 : 1.54 GiB (95%)
Language                    : Ukrainian
Default                     : Yes
Forced                      : No

Audio
ID                          : 2
Format                      : LC
Format/Info                 : Advanced Audio Codec Low Complexity
Codec ID                    : A_AAC-2
Duration                    : 1 h 28 min
Bit rate                    : 132 kb/s
Channel(s)                  : 2 channels
Channel layout              : L R
Sampling rate               : 44.1 kHz
Frame rate                  : 43.066 FPS (1024 SPF)
Compression mode            : Lossy
Stream size                 : 82.5 MiB (5%)
Language                    : Ukrainian
Default                     : Yes
Forced                      : No


Джерело:
Подяка п.PuMa.ua за наданий запис.


Золотий реліз (завантажене не впливає на рейтинг)
 Трекер:    Зареєстрований   

Завантажити / скачати український фільм



відео для новачків



 Зареєстрований:   2020-01-12 16:40
 Розмір:   1.62 GB 
 Оцінка фільму:   9.2/10 (Голосів: 68)
   
Electroz 
Відео Гуртом - підтримка та поширення
Відео Гуртом - підтримка та поширення


З нами з: 18.09.14
Востаннє: 11.08.20
Повідомлень: 3966

2020-01-12 16:56  
Anonymous
Це вебріп з архіву

The Gunslinger 
Свій


З нами з: 08.04.12
Востаннє: 10.08.20
Повідомлень: 103

2020-01-12 22:53  
Хтось дивився? Як фільм?
anastasia.wilder 
Новенький


З нами з: 12.04.19
Востаннє: 07.07.20
Повідомлень: 1

2020-01-13 01:09  
Дякую, але є проблема, що звукова доріжка постійно відстає. Важко дивитись.
Anonymous 







2020-01-13 01:33  
anastasia.wilder написано:
звукова доріжка постійно відстає

перевірив - на ПК все гаразд

jaral 
Забанено
Забанено


З нами з: 18.10.07
Востаннє: 21.01.20
Повідомлень: 977

2020-01-13 03:04  
Цитата:
перевірив - на ПК все гаразд
Те саме і у мене, звук збігається із картинкою, якість якої бажає бути кращим.
Svetik-semitsvetik 
Частий відвідувач


З нами з: 06.07.17
Востаннє: 11.08.20
Повідомлень: 26

2020-01-13 16:11  
Давно чекала... Треба подивитись.
patlatyj1000 
Новенький


З нами з: 13.12.12
Востаннє: 02.08.20
Повідомлень: 14

2020-01-25 20:33  
Виправте, будь ласка, в анотації. В українській мові немає як НАСТУПАЮЧОГО нового року, так і НАСТУПАЮЧОГО льоду.
Bohonek 
Свій


З нами з: 21.12.12
Востаннє: 09.08.20
Повідомлень: 123

2020-01-27 22:19  
Чому мене не полишало відчуття, що це німецький фільм?
reiser44 
Поважний учасник


З нами з: 12.11.14
Востаннє: 10.08.20
Повідомлень: 160

2020-01-28 17:49  
Bohonek написано:
німецький фільм?

А мене не полишало відчуття, що це якась, мʼяко кажучи, туфта. ))

frejo 
Новенький


З нами з: 17.10.10
Востаннє: 11.08.20
Повідомлень: 7

2020-05-11 12:03  
Я недавно додивився Breaking Bad, і після нього дивитися на такий монтаж, сценарій та режисуру - це просто тортури. Єдине, що можна похвалити, це декорації та костюми, які створюють непогану картинку, але якби ж тій картинці не треба було рухатись...
Ridan21 
Новенький


З нами з: 18.12.18
Востаннє: 10.08.20
Повідомлень: 8

2020-07-16 18:07  
Це просто жах а не фільм, якийсь суцільний маразм. Виділяти Держкіно гроші платників податків на таке "диво " - це злочин.
Ваш часовий пояс: GMT + 2 Години

Нова тема   Відповісти