Сансет Парк / Sunset Park (1996) 1080p Ukr/Eng

Нові коментарі

Нова тема   Відповісти
Автор Повідомлення
Anonymous 







2020-01-11 22:39  
Сансет Парк / Sunset Park (1996) 1080p Ukr/Eng

Сансет Парк / Sunset Park (1996) 1080p Ukr/Eng


Жанр: драма, спорт
Країна: США



Кінокомпанія: TriStar Pictures, Daniel L. Paulson Productions, Jersey Films
Режисер: Стів Гомер (Steve Gomer)
Актори: Реа Перлман (Rhea Perlman), Фредро Старр (Fredro Starr), Керол Кейн (Carol Kane), Терренс Ховард (Terrence Howard), Камілль Савіола (Camille Saviola), Де'андре Бондс (De'aundre Bonds), Талент Харріс (Talent Harris)

Сюжет:
Спортивна мелодрама розповідає про немолоду вже вчительку, яка вирішила піти тренувати шкільну баскетбольну команду, щоб підзаробити до пенсії і відкрити свій ресторанчик. Чого вона не очікувала, то це того, що причепиться до чорношкірих, зовсім не ідеальних хлопців, вивчить правила баскетболу і навіть виведе свою команду у фінал. Піднімаються проблеми бідних темношкірих.


Тривалість: 01:38:37
Якість: 1080p
Відео:
кодек:
розмір кадру: 1912х1072
бітрейт: 5323 кб/с

Аудіо # 1:
мова: українська
переклад: двоголосий закадровий
кодек: 2.0
бітрейт: 192 кб/с

Аудіо # 2:
мова: англійська
переклад: оригінал
кодек: 5.1
бітрейт: 384 кб/с
Info
General
Unique ID : 191746558662017124362840228393309010701 (0x90410B3D6D16612C92C0631B4B497B0D)
Complete name : H:\Toloka\2020\Sunset Park (1996) 1080p.
Format :
Format version : Version 4
File size : 4.06 GiB
Duration : 1 h 38 min
Overall bit rate : 5 901 kb/s
Encoded date : UTC 2020-01-11 19:34:44
Writing application : v6.1.0 ('Old Devil') built on Mar 4 2013 09:10:42
Writing library : libebml v1.3.0 + v1.4.0

Video
ID : 1
Format : AVC
Format/Info : Advanced Video Codec
Format profile : [email protected]
Format settings : CABAC / 4 Ref Frames
Format settings, CABAC : Yes
Format settings, RefFrames : 4 frames
Codec ID : V_MPEG4/ISO/AVC
Duration : 1 h 38 min
Bit rate : 5 208 kb/s
Width : 1 912 pixels
Height : 1 072 pixels
Display aspect ratio : 16:9
Frame rate mode : Constant
Frame rate : 23.976 FPS
Color space : YUV
Chroma subsampling : 4:2:0
Bit depth : 8 bits
Scan type : Progressive
Bits/(Pixel*Frame) : 0.106
Stream size : 3.59 GiB (88%)
Title : Sunset.Park.1996.1080p..DD5.1.H264-FGT
Language : English
Default : Yes
Forced : No
Color range : Limited
Color primaries : BT.709
Transfer characteristics : BT.709
Matrix coefficients : BT.709
Statistics Tags Issue : v42.0.0 ('Overtime') 64-bit 2020-01-08 17:23:40 / v6.1.0 ('Old Devil') built on Mar 4 2013 09:10:42 2020-01-11 19:34:44
FromStats_BitRate : 5323093
FromStats_Duration : 01:38:37.167000000
FromStats_FrameCount : 141870
FromStats_StreamSize : 3937204454

Audio #1
ID : 2
Format : AC-3
Format/Info : Audio Coding 3
Commercial name : Dolby Digital
Codec ID : A_AC3
Duration : 1 h 38 min
Bit rate mode : Constant
Bit rate : 192 kb/s
Channel(s) : 2 channels
Channel layout : L R
Sampling rate : 48.0 kHz
Frame rate : 31.250 FPS (1536 SPF)
Bit depth : 16 bits
Compression mode : Lossy
Stream size : 135 MiB (3%)
Title : ukr (Новий)
Language : Ukrainian
Service kind : Complete Main
Default : Yes
Forced : Yes

Audio #2
ID : 3
Format : AC-3
Format/Info : Audio Coding 3
Commercial name : Dolby Digital
Codec ID : A_AC3
Duration : 1 h 38 min
Bit rate mode : Constant
Bit rate : 384 kb/s
Channel(s) : 6 channels
Channel layout : L R C LFE Ls Rs
Sampling rate : 48.0 kHz
Frame rate : 31.250 FPS (1536 SPF)
Bit depth : 16 bits
Compression mode : Lossy
Stream size : 271 MiB (7%)
Title : Sunset.Park.1996.1080p..DD5.1.H264-FGT
Language : English
Service kind : Complete Main
Default : No
Forced : No
Statistics Tags Issue : v42.0.0 ('Overtime') 64-bit 2020-01-08 17:23:40 / v6.1.0 ('Old Devil') built on Mar 4 2013 09:10:42 2020-01-11 19:34:44
FromStats_BitRate : 384000
FromStats_Duration : 01:38:37.184000000
FromStats_FrameCount : 184912
FromStats_StreamSize : 284024832

Menu
00:00:00.000 : en:START
00:06:51.000 : en:THE NEW COACH
00:09:10.000 : en:ROBBED?
00:11:16.000 : en:WATCHING PRACTICE
00:14:37.000 : en:WASHINGTON HEIGHTS vs. SUNSET PARK
00:17:56.000 : en:LOST RESPECT
00:19:54.000 : en:SHORTY CALLS THE SHOTS
00:22:12.000 : en:EMBARRASED BUT TRUTHFUL
00:24:51.000 : en:ON & OFF THE BUS
00:27:44.000 : en:MORNINGSIDE vs. SUNSET PARK
00:33:50.000 : en:HOMEWORK ASSIGNMENT
00:35:54.000 : en:"BUSY GOT SHOT"
00:40:49.000 : en:DEALING WITH MR. BERNSTEIN
00:41:56.000 : en:TRAINING
00:43:20.000 : en:LOCKER RAP & QUOTES
00:45:20.000 : en:BUTTER
00:47:08.000 : en:SHORTY'S LETTER
00:51:12.000 : en:HER WAY OR THE HIGHWAY
00:56:43.000 : en:WHAT'S IT LIKE TO BE WHITE?
01:03:46.000 : en:RIKERS ISLAND
01:04:59.000 : en:BEFORE JUDGE MEYER
01:07:37.000 : en:PEP TALK
01:08:56.000 : en:THE BROOKLYN CHAMPIONSHIP GAME
01:11:40.000 : en:NO LONGER ON THE TEAM
01:16:43.000 : en:TRUTH BETWEEN FRIENDS
01:20:50.000 : en:FORGIVEN
01:22:36.000 : en:THE CITY CHAMPIONSHIP GAME
01:29:53.000 : en:"I HATE TO LOOSE"
Скріншоти






За українську доріжку подяка п.: MAKAPOHHIK, urij546724
Особиста подяка пану denixx за надану матеріальну допомогу на підтримку цього і майбутніх релізів.
Джерело:


Срібний реліз (на рейтинг впливає 50% завантаженого)
 Трекер:    Зареєстрований   

Завантажити / скачати фільм українською



відео для новачків



 Зареєстрований:   2020-01-11 22:39
 Розмір:   4.06 GB 
 Оцінка фільму:   10/10 (Голосів: 2)
   
Інші релізи
   Сансет Парк / Sunset Park (1996) Ukr/Eng urij546724  1 / 0   2.14 GB   2012-03-10 22:02 
Ваш часовий пояс: GMT + 2 Години

Нова тема   Відповісти