Гра в хованки / Ready or Not (2019) 1080p H.265 Ukr/Eng | Sub Ukr/Eng

Нові коментарі

Нова тема   Відповісти
Автор Повідомлення
Anonymous 







2020-01-11 21:56  
Гра в хованки / Ready or Not (2019) 1080p H.265 Ukr/Eng | Sub Ukr/Eng

Гра в хованки / Ready or Not (2019) 1080p H.265 Ukr/Eng | Sub Ukr/Eng


Жанр: детектив, жахи, трилер
Країна: США
Кінокомпанія: Mythology Entertainment, Vinson Films
Режисер: Меттью Беттінеллі, Тайлер Джиллетт
Актори: Самара Вівінг, Адам Броді, Марк О’Брайен, Генрі Черні, Енді МакДауелл, Мелані Скорфано, Джон Ралстон

Сюжет:
Фільм розповідає про дівчину на ім'я Грейс, яка виходить заміж за хлопця своєї мрії і з нетерпінням чекає, коли стане частиною його великої родини. Але ніч їхнього весілля приймає несподіваний оберт, коли ексцентричні родичі вирішують влаштувати на неї полювання, оскільки вірять, що якщо не принесуть її в жертву, їх спіткає жахлива біда.

Тривалість: 01:35:22
Якість:

Відео:
кодек: H.265 (HEVC)
розмір кадру: 1920 x 804
бітрейт: 7 545 кб/с
бітова глибина: 10 біт

Увага! Перед завантаженням переконайтесь, що ваш пристрій відтворення (та/або ПЗ) підтримує H.265 (HEVC)

Аудіо # 1:
мова: українська
переклад: професійний дубльований
кодек: AC-3 5.1
бітрейт: 384 кб/с

Аудіо # 2:
мова: англійська
переклад: оригінал
кодек: AC-3 5.1
бітрейт: 640 кб/с

Субтитри # 1-2: (Forced, Full)
мова: українська
тип: програмні (м'які)
формат: *.srt

Субтитри # 3-5: (Full, SDH, Commentary)
мова: англійська
тип: програмні (м'які)
формат: *.srt


Info
Код:
General
Unique ID                                : 292274549257433034220862694441215379015 (0xDBE207D801278466F0EF7012EA88C647)
Complete name                            : Ready or Not (2019) 1080p H.265 [UKR_ENG] [Hurtom].
Format                                   :
Format version                           : Version 4
File size                                : 5.71 GiB
Duration                                 : 1 h 35 min
Overall bit rate                         : 8 572 kb/s
Movie name                               : Гра в хованки / Ready or Not (2019)
Encoded date                             : UTC 2020-06-03 21:36:37
Writing application                      : v20.0.0 ('I Am The Sun') 64-bit
Writing library                          : libebml v1.3.5 + v1.4.8
Cover                                    : Yes
Attachments                              : cover.jpg

Video
ID                                       : 1
Format                                   : HEVC
Format/Info                              : High Efficiency Video Coding
Format profile                           : Main [email protected]@High
Codec ID                                 : V_MPEGH/ISO/HEVC
Duration                                 : 1 h 35 min
Bit rate                                 : 7 545 kb/s
Width                                    : 1 920 pixels
Height                                   : 804 pixels
Display aspect ratio                     : 2.40:1
Frame rate mode                          : Constant
Frame rate                               : 23.976 (24000/1001) FPS
Color space                              : YUV
Chroma subsampling                       : 4:2:0
Bit depth                                : 10 bits
Bits/(Pixel*Frame)                       : 0.204
Stream size                              : 5.03 GiB (88%)
Title                                    : Гра в хованки / Ready or Not (2019)
Writing library                          : x265 3.1+7-147fb92c5ed5:[Windows][clang 8.0.0][64 bit] 10bit
Encoding settings                        : cpuid=1111039 / frame-threads=13 / wpp / no-pmode / no-pme / no-psnr / no-ssim / log-level=3 / input-csp=1 / input-res=1920x804 / interlace=0 / total-frames=0 / level-idc=41 / high-tier=1 / uhd-bd=0 / ref=5 / allow-non-conformance / no-repeat-headers / annexb / no-aud / no-hrd / info / hash=0 / no-temporal-layers / open-gop / min-keyint=23 / keyint=240 / gop-lookahead=0 / bframes=8 / b-adapt=2 / b-pyramid / bframe-bias=0 / rc-lookahead=60 / lookahead-slices=4 / scenecut=60 / radl=0 / no-splice / no-intra-refresh / ctu=64 / min-cu-size=8 / rect / amp / max-tu-size=32 / tu-inter-depth=4 / tu-intra-depth=4 / limit-tu=4 / rdoq-level=2 / dynamic-rd=0.00 / no-ssim-rd / signhide / no-tskip / nr-intra=0 / nr-inter=0 / no-constrained-intra / no-strong-intra-smoothing / max-merge=5 / limit-refs=3 / limit-modes / me=3 / subme=7 / merange=57 / temporal-mvp / no-hme / weightp / weightb / no-analyze-src-pics / deblock=-3:-3 / no-sao / no-sao-non-deblock / rd=6 / no-early-skip / no-rskip / no-fast-intra / no-tskip-fast / no-cu-lossless / no-b-intra / no-splitrd-skip / rdpenalty=0 / psy-rd=2.00 / psy-rdoq=1.00 / no-rd-refine / no-lossless / cbqpoffs=0 / crqpoffs=0 / rc=crf / crf=19.0 / qcomp=0.60 / qpstep=4 / stats-write=0 / stats-read=0 / vbv-maxrate=50000 / vbv-bufsize=50000 / vbv-init=0.9 / crf-max=30.0 / crf-min=0.0 / ipratio=1.40 / pbratio=1.30 / aq-mode=2 / aq-strength=1.00 / no-cutree / zone-count=0 / no-strict-cbr / qg-size=32 / no-rc-grain / qpmax=69 / qpmin=0 / no-const-vbv / sar=1 / overscan=0 / videoformat=5 / range=0 / colorprim=1 / transfer=1 / colormatrix=1 / chromaloc=0 / display-window=0cll=0,0 / min-luma=0 / max-luma=1023 / log2-max-poc-lsb=8 / vui-timing-info / vui-hrd-info / slices=1 / no-opt-qp-pps / no-opt-ref-list-length-pps / no-multi-pass-opt-rps / scenecut-bias=0.05 / no-opt-cu-delta-qp / no-aq-motion / no-hdr / no-hdr-opt / no-dhdr10-opt / no-idr-recovery-sei / analysis-reuse-level=5 / scale-factor=0 / refine-intra=0 / refine-inter=0 / refine-mv=0 / refine-ctu-distortion=0 / no-limit-sao / ctu-info=0 / no-lowpass-dct / refine-analysis-type=4391088 / copy-pic=1 / max-ausize-factor=1.0 / no-dynamic-refine / no-single-sei / no-hevc-aq / no-svt / no-field / qp-adaptation-range=1.00
Language                                 : English
Default                                  : Yes
Forced                                   : No
Color range                              : Limited
Color primaries                          : BT.709
Transfer characteristics                 : BT.709
Matrix coefficients                      : BT.709

Audio #1
ID                                       : 2
Format                                   : AC-3
Format/Info                              : Audio Coding 3
Commercial name                          : Dolby Digital
Codec ID                                 : A_AC3
Duration                                 : 1 h 35 min
Bit rate mode                            : Constant
Bit rate                                 : 384 kb/s
Channel(s)                               : 6 channels
Channel layout                           : L R C LFE Ls Rs
Sampling rate                            : 48.0 kHz
Frame rate                               : 31.250 FPS (1536 SPF)
Compression mode                         : Lossy
Stream size                              : 262 MiB (4%)
Title                                    : / 5.1 Ch / 384 kbps / ПД / iTunes
Language                                 : Ukrainian
Service kind                             : Complete Main
Default                                  : Yes
Forced                                   : Yes

Audio #2
ID                                       : 3
Format                                   : AC-3
Format/Info                              : Audio Coding 3
Commercial name                          : Dolby Digital
Codec ID                                 : A_AC3
Duration                                 : 1 h 35 min
Bit rate mode                            : Constant
Bit rate                                 : 640 kb/s
Channel(s)                               : 6 channels
Channel layout                           : L R C LFE Ls Rs
Sampling rate                            : 48.0 kHz
Frame rate                               : 31.250 FPS (1536 SPF)
Compression mode                         : Lossy
Stream size                              : 437 MiB (7%)
Title                                    : / 5.1 Ch / 640 kbps / Original
Language                                 : English
Service kind                             : Complete Main
Default                                  : No
Forced                                   : No

Text #1
ID                                       : 4
Format                                   : UTF-8
Codec ID                                 : S_TEXT/UTF8
Codec ID/Info                            : UTF-8 Plain Text
Duration                                 : 1 h 34 min
Bit rate                                 : 4 b/s
Count of elements                        : 80
Stream size                              : 3.32 KiB (0%)
Title                                    : Forced
Language                                 : Ukrainian
Default                                  : Yes
Forced                                   : Yes

Text #2
ID                                       : 5
Format                                   : UTF-8
Codec ID                                 : S_TEXT/UTF8
Codec ID/Info                            : UTF-8 Plain Text
Duration                                 : 1 h 34 min
Bit rate                                 : 66 b/s
Count of elements                        : 1081
Stream size                              : 46.0 KiB (0%)
Title                                    : Full
Language                                 : Ukrainian
Default                                  : No
Forced                                   : No

Text #3
ID                                       : 6
Format                                   : UTF-8
Codec ID                                 : S_TEXT/UTF8
Codec ID/Info                            : UTF-8 Plain Text
Duration                                 : 1 h 33 min
Bit rate                                 : 46 b/s
Count of elements                        : 1095
Stream size                              : 32.2 KiB (0%)
Title                                    : Full
Language                                 : English
Default                                  : No
Forced                                   : No

Text #4
ID                                       : 7
Format                                   : UTF-8
Codec ID                                 : S_TEXT/UTF8
Codec ID/Info                            : UTF-8 Plain Text
Duration                                 : 1 h 35 min
Bit rate                                 : 56 b/s
Count of elements                        : 1362
Stream size                              : 39.5 KiB (0%)
Title                                    : SDH
Language                                 : English
Default                                  : No
Forced                                   : No

Text #5
ID                                       : 8
Format                                   : UTF-8
Codec ID                                 : S_TEXT/UTF8
Codec ID/Info                            : UTF-8 Plain Text
Duration                                 : 1 h 35 min
Bit rate                                 : 136 b/s
Count of elements                        : 2358
Stream size                              : 95.2 KiB (0%)
Title                                    : Commentary
Language                                 : English
Default                                  : No
Forced                                   : No

Menu
00:00:00.000                             : :Chapter 01
00:03:11.817                             : :Chapter 02
00:06:49.534                             : :Chapter 03
00:09:27.776                             : :Chapter 04
00:12:27.038                             : :Chapter 05
00:16:24.150                             : :Chapter 06
00:21:57.942                             : :Chapter 07
00:25:21.061                             : :Chapter 08
00:28:00.262                             : :Chapter 09
00:31:21.922                             : :Chapter 10
00:34:46.459                             : :Chapter 11
00:36:08.625                             : :Chapter 12
00:38:23.760                             : :Chapter 13
00:41:55.930                             : :Chapter 14
00:45:40.363                             : :Chapter 15
00:48:03.047                             : :Chapter 16
00:51:50.441                             : :Chapter 17
00:54:05.075                             : :Chapter 18
00:57:05.088                             : :Chapter 19
00:59:52.714                             : :Chapter 20
01:01:37.903                             : :Chapter 21
01:04:01.671                             : :Chapter 22
01:07:31.422                             : :Chapter 23
01:09:25.828                             : :Chapter 24
01:11:48.304                             : :Chapter 25
01:15:59.722                             : :Chapter 26
01:18:34.585                             : :Chapter 27
01:21:39.645                             : :Chapter 28
01:24:07.292                             : :Chapter 29
01:27:48.013                             : :Chapter 30
01:29:22.315                             : :Chapter 31
01:30:49.152                             : :Chapter 32
Світлини




Джерело: &
Особиста оцінка: 0 - не дивився


 Трекер:    Зареєстрований   

Завантажити / скачати фільм українською



відео для новачків



 Зареєстрований:   2020-06-04 01:00
 Розмір:   5.71 GB 
 Оцінка фільму:   9.6/10 (Голосів: 13)
   
Інші релізи
Ваш часовий пояс: GMT + 2 Години

Нова тема   Відповісти