Психована сучка / Psychobitch (2019) 720p Nor | sub Ukr

Нові коментарі

Нова тема   Відповісти
Автор Повідомлення
Anonymous 







2020-01-11 19:03  
Психована сучка / Psychobitch (2019) 720p Nor | sub Ukr

Психована сучка / Psychobitch (2019) 720p Nor | sub Ukr


Жанр: драма
Країна: Норвегія



Кінокомпанія: Ape&Bjørn
Режисер: Мартін Лунд
Актори: Elli Rhiannon Müller Osbourne, Jonas Tidemann, Henrik Rafaelsen

Сюжет:
Норвегія, наш час, невелике місто Йовік. 15-річна Фріда цілком вважає себе аутсайдером класу. У цьому світі «Досконалого Покоління» інші діти в школі згодні: Фріда таки дивна. Маріус робить майже все, що можна, щоб бути зразковим. Коли їх назначили партнерами у навчальній групі, він побачив у цьому ще одну можливість показати всім, який він чудовий хлопець. Але Фріда не має наміру бути «виправленою» золотим хлопчиком класу. Їх сумісне навчання стає каталізатором бурхливих стосунків. Та все ж у своїх боях з Фрідою Маріус переживає щось захоплююче, комплексне і абсолютно нове ...


Тривалість: 01:51:38
Якість:
Відео:
кодек:
розмір кадру: 1280 х 720
бітрейт: 2338 кб/с

Аудіо:
мова: норвезька
переклад: оригінал
кодек: 2.0
бітрейт: 125 кб/с

Субтитри:
мова: українська
тип: програмні (м'які)
формат: *.srt
Info
Код:
General
Unique ID                                : 131154441522146141924555769227650185557 (0x62AB6D37681B17D3BD660109EC3EB955)
Complete name                            : Psychobitch (2019) 720p [Nor_sub_Ukr] [Hurtom].
Format                                   :
Format version                           : Version 4
File size                                : 1.92 GiB
Duration                                 : 1 h 51 min
Overall bit rate                         : 2 466 kb/s
Movie name                               : Психована сучка (2019)
Encoded date                             : UTC 2020-01-11 15:24:49
Writing application                      : v37.0.0 ('Leave It') 32-bit
Writing library                          : libebml v1.3.9 + v1.5.2
Cover                                    : Yes
Attachments                              : cover.jpg

Video
ID                                       : 1
Format                                   : AVC
Format/Info                              : Advanced Video Codec
Format profile                           : [email protected]
Format settings                          : CABAC / 3 Ref Frames
Format settings, CABAC                   : Yes
Format settings, ReFrames                : 3 frames
Format settings, GOP                     : M=4, N=33
Codec ID                                 : V_MPEG4/ISO/AVC
Duration                                 : 1 h 51 min
Bit rate                                 : 2 338 kb/s
Width                                    : 1 280 pixels
Height                                   : 720 pixels
Display aspect ratio                     : 16:9
Frame rate mode                          : Constant
Frame rate                               : 25.000 FPS
Standard                                 : PAL
Color space                              : YUV
Chroma subsampling                       : 4:2:0
Bit depth                                : 8 bits
Scan type                                : Progressive
Bits/(Pixel*Frame)                       : 0.101
Stream size                              : 1.82 GiB (95%)
Language                                 : Norwegian
Default                                  : Yes
Forced                                   : No
Color range                              : Limited

Audio
ID                                       : 2
Format                                   : LC
Format/Info                              : Advanced Audio Codec Low Complexity
Codec ID                                 : A_AAC-2
Duration                                 : 1 h 51 min
Bit rate                                 : 125 kb/s
Channel(s)                               : 2 channels
Channel layout                           : L R
Sampling rate                            : 48.0 kHz
Frame rate                               : 46.875 FPS (1024 SPF)
Compression mode                         : Lossy
Delay relative to video                  : -80 ms
Stream size                              : 100 MiB (5%)
Language                                 : Norwegian
Default                                  : Yes
Forced                                   : No

Text
ID                                       : 3
Format                                   : UTF-8
Codec ID                                 : S_TEXT/UTF8
Codec ID/Info                            : UTF-8 Plain Text
Duration                                 : 1 h 47 min
Bit rate                                 : 60 b/s
Count of elements                        : 1126
Stream size                              : 48.0 KiB (0%)
Language                                 : Ukrainian
Default                                  : Yes
Forced                                   : Yes

Скріншоти





Джерело: і artekinofestival.com
Подяка за субтитри пану Форкуш


 Трекер:    Зареєстрований   

Завантажити / скачати фільм українською



відео для новачків



 Зареєстрований:   2020-01-11 19:03
 Розмір:   1.92 GB 
 Оцінка фільму:   10/10 (Голосів: 6)
   
MutuLI 
Відео Гуртом - фільмокрай
Відео Гуртом - фільмокрай


З нами з: 08.03.09
Востаннє: 26.01.20
Повідомлень: 1654

2020-01-13 22:23  
субтитри бажано ще кудись закинути (на сервер і opensubtitles.org) і дати посилання в описі, бо з часом може сідів не стати, і тоді субтитри пропадуть.
Ваш часовий пояс: GMT + 2 Години

Нова тема   Відповісти