Селфі / Selfie (2019) 1080p Ita | sub Ukr

Нові коментарі

Нова тема   Відповісти
Автор Повідомлення
ssTAss 
Модератор музики


З нами з: 05.07.08
Востаннє: 06.06.20
Повідомлень: 16442

2020-01-11 03:28  
Селфі / Selfie (2019) 1080p Ita | sub Ukr

Селфі / Selfie (2019) 1080p Ita | sub Ukr


Жанр: артхаус, документальний
Країна: Франція, Італія



Кінокомпанія: Magnéto Prod, ARTE, Casa delle Visioni
Режисер: Агостіно Ферренте
Актори: Алессандро Антонеллі, П'єтро Орландо

Сюжет:
Алессандро і П'єтро — 16-річні неапольці з району Траяно, де влітку 2014 року поліціянт застрелив їхнього ровесника Давіде Біфолко, прийнявши підлітка за злочинця. Вони нерозлучні друзі, Алессандро працює офіціантом у барі, а П'єтро мріє стати перукарем. Алессандро і П'єтро пристають на пропозицію режисера познімати себе з iPhone, коментуючи в прямому ефірі своє щоденне життя, роботу й спільне дозвілля, а також життя свого району, спорожнілого посеред літа, і трагедію, яка обірвала життя Давіде.


Тривалість: 01:17:42
Якість:
Відео:
кодек:
розмір кадру: 1920 х 1080
бітрейт: 8367 кб/с

Аудіо:
мова: італійська
переклад: оригінал
кодек: 2.0
бітрейт: 128 кб/с

Субтитри:
мова: італійська
тип: вбудовані (жорсткі)

Субтитри:
мова: українська
тип: програмні (м'які)
формат: *.
Info
Код:
General
Unique ID                                : 78031558191881274463162197313659578879 (0x3AB454DA18CB93C5B018A7329E4FA9FF)
Complete name                            : Selfie (2019) 1080p [Ita_sub_Ukr] [Hurtom].
Format                                   :
Format version                           : Version 4
File size                                : 4.61 GiB
Duration                                 : 1 h 17 min
Overall bit rate                         : 8 498 kb/s
Movie name                               : Селфі (2019)
Encoded date                             : UTC 2020-01-10 22:36:50
Writing application                      : v37.0.0 ('Leave It') 32-bit
Writing library                          : libebml v1.3.9 + v1.5.2
Cover                                    : Yes
Attachments                              : cover.jpg

Video
ID                                       : 1
Format                                   : AVC
Format/Info                              : Advanced Video Codec
Format profile                           : [email protected]
Format settings                          : CABAC / 2 Ref Frames
Format settings, CABAC                   : Yes
Format settings, ReFrames                : 2 frames
Format settings, GOP                     : M=3, N=25
Codec ID                                 : V_MPEG4/ISO/AVC
Duration                                 : 1 h 17 min
Bit rate                                 : 8 367 kb/s
Width                                    : 1 920 pixels
Height                                   : 1 080 pixels
Display aspect ratio                     : 16:9
Frame rate mode                          : Constant
Frame rate                               : 30.000 FPS
Color space                              : YUV
Chroma subsampling                       : 4:2:0
Bit depth                                : 8 bits
Scan type                                : Progressive
Bits/(Pixel*Frame)                       : 0.135
Stream size                              : 4.54 GiB (98%)
Language                                 : Italian
Default                                  : Yes
Forced                                   : No

Audio
ID                                       : 2
Format                                   : LC
Format/Info                              : Advanced Audio Codec Low Complexity
Codec ID                                 : A_AAC-2
Duration                                 : 1 h 17 min
Bit rate                                 : 128 kb/s
Channel(s)                               : 2 channels
Channel layout                           : L R
Sampling rate                            : 44.1 kHz
Frame rate                               : 43.066 FPS (1024 SPF)
Compression mode                         : Lossy
Delay relative to video                  : -67 ms
Stream size                              : 71.1 MiB (2%)
Language                                 : Italian
Default                                  : Yes
Forced                                   : No

Text
ID                                       : 3
Format                                   :
Codec ID                                 : S_TEXT/
Codec ID/Info                            : Advanced Sub Station Alpha
Duration                                 : 1 h 16 min
Bit rate                                 : 119 b/s
Count of elements                        : 920
Compression mode                         : Lossless
Stream size                              : 67.3 KiB (0%)
Language                                 : Ukrainian
Default                                  : Yes
Forced                                   : Yes

Скріншоти





Джерело: і artekinofestival.com
Подяка за субтитри пану Форкуш


Срібний реліз (на рейтинг впливає 50% завантаженого)
 Трекер:    Зареєстрований   

Завантажити / скачати фільм українською



відео для новачків



 Зареєстрований:   2020-01-11 03:28
 Розмір:   4.61 GB 
 Оцінка фільму:   10/10 (Голосів: 2)
   
Ваш часовий пояс: GMT + 2 Години

Нова тема   Відповісти