Розум і почуття / Sense and Sensibility (1995) AVC Ukr/Eng | Sub Eng

Нові коментарі

Нова тема   Відповісти
Автор Повідомлення
Arsenfpu 
Відео Гуртом - фільмокрай
Відео Гуртом - фільмокрай


З нами з: 30.04.09
Востаннє: 03.07.20
Повідомлень: 7031

2020-01-10 00:33  
Розум і почуття / Sense and Sensibility (1995) AVC Ukr/Eng | Sub Eng

Розум і почуття / Sense and Sensibility (1995) AVC Ukr/Eng | Sub Eng


Жанр: мелодрама, драма
Країна: США, Великобританія



Кінокомпанія: Columbia Pictures Corporation, Mirage
Режисер: Енг Лі
Актори: Ема Томпсон, Кейт Вінслет, Х'ю Грант, Алан Рікман, Грег Вайз, Джемма Джонс, Роберт Гарді, Джеймс Фліт, Гарієт Волтер, Імелда Стонтон

Сюжет:
Історія життя і кохання двох сестер - чуттєвої Елінор і пристрасної Маріани, чиє щастя і майбутнє затьмарене смертю батька і втратою величезного спадку сім'ї.
Це історія-конфлікт бажань і строгих правил буржуазного суспільства, що жорстоко засуджувало будь-який прояв чуттєвих потягів і що виносило суворий вирок снобістського пуританства.


Тривалість: 02:16:17
Якість:
Відео:
кодек:
розмір кадру: 1 024 х 560
бітрейт: 2 299 кб/с

Аудіо # 1:
мова: українська
переклад: багатоголосий закадровий (з 5.1)
кодек: 2.0
бітрейт: 192 кб/с

Аудіо # 2:
мова: англійська
переклад: оригінал
кодек: 2.0
бітрейт: 192 кб/с

Субтитри:
мова: англійська (US, UK, SDH)
тип: програмні (м'які)
формат: *.srt
Про файл
General
Unique ID : 129594715764690739512425878732136896110 (0x617F08CCA3D065F2C47EFFB8D449D66E)
Complete name : C:\Sense and Sensibility (1995) [Ukr,Eng] AVC [Hurtom].
Format :
Format version : Version 4 / Version 2
File size : 2.56 GiB
Duration : 2 h 16 min
Overall bit rate : 2 685 kb/s
Movie name : Розум і почуття / Sense and Sensibility (1995)
Encoded date : UTC 2020-01-09 21:04:08
Writing application : v21.0.0 ('Tardigrades Will Inherit The Earth') 32-bit
Writing library : libebml v1.3.5 + v1.4.8
Cover : Yes
Attachments : cover.jpg

Video
ID : 1
Format : AVC
Format/Info : Advanced Video Codec
Format profile : [email protected]
Format settings, CABAC : Yes
Format settings, ReFrames : 4 frames
Codec ID : V_MPEG4/ISO/AVC
Duration : 2 h 16 min
Bit rate : 2 299 kb/s
Width : 1 024 pixels
Height : 560 pixels
Display aspect ratio : 1.85:1
Frame rate mode : Constant
Frame rate : 23.976 (24000/1001) FPS
Color space : YUV
Chroma subsampling : 4:2:0
Bit depth : 8 bits
Scan type : Progressive
Bits/(Pixel*Frame) : 0.167
Stream size : 2.19 GiB (86%)
Writing library : core 157 r2935 545de2f
Encoding settings : cabac=1 / ref=3 / deblock=1:-1:-1 / analyse=0x3:0x113 / me=hex / subme=7 / psy=1 / psy_rd=1.00:0.15 / mixed_ref=1 / me_range=16 / chroma_me=1 / trellis=1 / 8x8dct=1 / cqm=0 / deadzone=21,11 / fast_pskip=1 / chroma_qp_offset=-3 / threads=12 / lookahead_threads=2 / sliced_threads=0 / nr=0 / decimate=1 / interlaced=0 / bluray_compat=0 / constrained_intra=0 / bframes=3 / b_pyramid=2 / b_adapt=1 / b_bias=0 / direct=1 / weightb=1 / open_gop=0 / weightp=2 / keyint=240 / keyint_min=23 / scenecut=40 / intra_refresh=0 / rc_lookahead=40 / rc=2pass / mbtree=1 / bitrate=2299 / ratetol=1.0 / qcomp=0.60 / qpmin=0 / qpmax=69 / qpstep=4 / cplxblur=20.0 / qblur=0.5 / ip_ratio=1.40 / aq=1:1.00
Default : Yes
Forced : No

Audio #1
ID : 2
Format : AC-3
Format/Info : Audio Coding 3
Mode extension : CM (complete main)
Format settings, Endianness : Big
Codec ID : A_AC3
Duration : 2 h 16 min
Bit rate mode : Constant
Bit rate : 192 kb/s
Channel(s) : 2 channels
Channel positions : Front: L R
Sampling rate : 48.0 kHz
Frame rate : 31.250 FPS (1536 spf)
Compression mode : Lossy
Stream size : 187 MiB (7%)
Title : Інтер
Language : Ukrainian
Default : Yes
Forced : Yes

Audio #2
ID : 3
Format : AC-3
Format/Info : Audio Coding 3
Mode extension : CM (complete main)
Format settings, Endianness : Big
Codec ID : A_AC3
Duration : 2 h 16 min
Bit rate mode : Constant
Bit rate : 192 kb/s
Channel(s) : 2 channels
Channel positions : Front: L R
Sampling rate : 48.0 kHz
Frame rate : 31.250 FPS (1536 spf)
Compression mode : Lossy
Stream size : 187 MiB (7%)
Language : English
Default : No
Forced : No

Text #1
ID : 4
Format : UTF-8
Codec ID : S_TEXT/UTF8
Codec ID/Info : UTF-8 Plain Text
Duration : 2 h 10 min
Bit rate : 57 b/s
Count of elements : 1463
Stream size : 54.8 KiB (0%)
Title : US
Language : English
Default : Yes
Forced : No

Text #2
ID : 5
Format : UTF-8
Codec ID : S_TEXT/UTF8
Codec ID/Info : UTF-8 Plain Text
Duration : 2 h 10 min
Bit rate : 57 b/s
Count of elements : 1463
Stream size : 54.8 KiB (0%)
Title : UK
Language : English
Default : No
Forced : No

Text #3
ID : 6
Format : UTF-8
Codec ID : S_TEXT/UTF8
Codec ID/Info : UTF-8 Plain Text
Duration : 2 h 13 min
Bit rate : 57 b/s
Count of elements : 1574
Stream size : 56.2 KiB (0%)
Title : SDH
Language : English
Default : No
Forced : No
Скріншоти














Джерело:
За українську доріжку дякую пану Romario_O
Особиста оцінка: не дивився


Срібний реліз (на рейтинг впливає 50% завантаженого)
 Трекер:    Зареєстрований   

Завантажити / скачати фільм українською



відео для новачків



 Зареєстрований:   2020-01-10 00:33
 Розмір:   2.56 GB 
 Оцінка фільму:   9.7/10 (Голосів: 12)
   
Інші релізи
akm_070 
Новенький


З нами з: 10.05.13
Востаннє: 04.07.20
Повідомлень: 6

2020-01-11 08:24  
"Це історія-конфлікт бажань і строгих правил буржуазного суспільства, що жорстоко засуджувало будь-який прояв чуттєвих потягів і що виносило суворий вирок снобістського пуританства."

...який чудесний радянський опис сюжету фільму. Wink (2)

don pedro 
Попереджень: 1
Попереджень: 1 


З нами з: 29.06.11
Востаннє: 03.07.20
Повідомлень: 17123

2020-04-30 13:42  
Прекрасна історія про кохання, яке рве мури. Чудові костюми, музика, природа і акторська гра від у подальшому знаменитих акторів, які тут ще такі юні.
Шандрігон 
Свій


З нами з: 04.05.11
Востаннє: 04.07.20
Повідомлень: 88

2020-06-18 13:32  
зараз чомусь найцікавіше мені в цьому фільмі - це те, що в реальному житті Томпсон після цього кіна вийшла заміж за отого "легковажного жевжика"
Ваш часовий пояс: GMT + 2 Години

Нова тема   Відповісти