Корпорація (Сезони 1-2) / Corporate (Seasons 1-2) (2018-2019) 1080p Ukr/Eng | Sub Eng

Нові коментарі

Нова тема   Відповісти
Автор Повідомлення
Anonymous 







2020-01-09 11:13  
Корпорація (Сезони 1-2) / Corporate (Seasons 1-2) (2018-2019) 1080p Ukr/Eng | Sub Eng

Корпорація (Сезони 1-2) / Corporate (Seasons 1-2) (2018-2019) 1080p Ukr/Eng | Sub Eng


Жанр: комедія
Країна: США



Кінокомпанія: Comedy Central
Режисер: Пет Бішоп
Актори: Метт Інгебретсон, Джейк Вейсман, Енн Дудек, Адам Лустіки, Апарна Нанчерла, Ленс Реддік.

Сюжет:
Похмурий і невиразний погляд на життя молодшого керівника у навчанні середньої, бездушної багатонаціональної корпорації.


Тривалість: 1 серія: 22:00 (цілком серій: 19 з 20)
Перелік серій
1 сезон

1.The Void
2.The Powerpoint of Death
3.The Pain of Being Alive - телеканал не показував цю серію.
4.Trademarq
5.Corporate Retreat
6.Casual Friday
7.The Long Meeting
8.Society Tomorrow
9.Weekend
10.Remember Day

2 сезон

1.The One Who's There
2.The Concert
3.Natural Beauty
4.Thanks!
5.The Expense Report
6.Mattchiavelli and the Piss Detective
7.Labor Day
8.The Tragedy
9.Vacation
10.The Fall
Якість:
Відео:
кодек:
розмір кадру: 1920 х 1080
бітрейт: 6700 кб/с

Аудіо # 1:
мова: українська
переклад: багатоголосий закадровий | Paramount Comedy
кодек: 2.0
бітрейт: 192 кб/с

Аудіо # 2:
мова: англійська
переклад: оригінал
кодек: E- 2.0
бітрейт: 224 кб/с

Субтитри:
мова: англійська
тип: програмні (м'які)
формат: *.srt
Info
Video
ID : 1
Format : AVC
Format/Info : Advanced Video Codec
Format profile : [email protected]
Format settings : CABAC / 4 Ref Frames
Format settings, CABAC : Yes
Format settings, Reference : 4 frames
Codec ID : V_MPEG4/ISO/AVC
Duration : 21 min 22 s
Bit rate mode : Variable
Bit rate : 6 722 kb/s
Maximum bit rate : 15.0 Mb/s
Width : 1 920 pixels
Height : 1 080 pixels
Display aspect ratio : 16:9
Frame rate mode : Constant
Frame rate : 23.976 (24000/1001) FPS
Color space : YUV
Chroma subsampling : 4:2:0
Bit depth : 8 bits
Scan type : Progressive
Bits/(Pixel*Frame) : 0.135
Stream size : 1.00 GiB (94%)
Language : English
Default : Yes
Forced : No
Color range : Limited
Color primaries : BT.709
Transfer characteristics : BT.709
Matrix coefficients : BT.709

Audio #1
ID : 2
Format : AC-3
Format/Info : Audio Coding 3
Commercial name : Dolby Digital
Codec ID : A_AC3
Duration : 21 min 22 s
Bit rate mode : Constant
Bit rate : 192 kb/s
Channel(s) : 2 channels
Channel layout : L R
Sampling rate : 48.0 kHz
Frame rate : 31.250 FPS (1536 SPF)
Compression mode : Lossy
Stream size : 29.4 MiB (3%)
Title : MVO - Paramount Comedy
Language : Ukrainian
Service kind : Complete Main
Default : Yes
Forced : No

Audio #2
ID : 3
Format : E-AC-3
Format/Info : Enhanced AC-3
Commercial name : Dolby Digital Plus
Codec ID : A_EAC3
Duration : 21 min 22 s
Bit rate mode : Constant
Bit rate : 224 kb/s
Channel(s) : 2 channels
Channel layout : L R
Sampling rate : 48.0 kHz
Frame rate : 31.250 FPS (1536 SPF)
Compression mode : Lossy
Stream size : 34.2 MiB (3%)
Language : English
Service kind : Complete Main
Default : No
Forced : No

Text
ID : 4
Format : UTF-8
Codec ID : S_TEXT/UTF8
Codec ID/Info : UTF-8 Plain Text
Duration : 21 min 17 s
Bit rate : 116 b/s
Count of elements : 603
Stream size : 18.2 KiB (0%)
Language : English
Default : No
Forced : No
Скріншоти















Подяка: пану, що побажав залишитися анонімним за записи доріжок.
Джерело:
Особиста оцінка: 6 - третій сорт - не брак


Бронзовий реліз (на рейтинг впливає 75% завантаженого)
 Трекер:    Зареєстрований   

Завантажити / скачати серіал українською



відео для новачків



 Зареєстрований:   2020-05-10 18:59
 Розмір:   19.61 GB 
 Оцінка серіалу:   9.4/10 (Голосів: 9)
   
Anonymous 







2020-05-10 18:53  
Додано 2 сезон.
Для тих хто вантажив 1 сезон і хоче надалі сідувати треба видалити старий торент і створити теку Corporate (Season 01-02) [Ukr_Eng] 1080p [Hurtom] , а потім перемістити туди теку з 1 сезоном. Після цього завантажити новий торент.

kovpack 
Поважний учасник


З нами з: 10.12.07
Востаннє: 29.11.20
Повідомлень: 229

2020-05-10 21:23  
не вистачає 3 серії першого сезону. можна було б додати мовою оригіналу, а не повністю викинути серію.
Anonymous 







2020-05-10 23:43  
kovpack написано:
можна було б додати мовою оригіналу, а не повністю викинути серію

ні, не можна. без перекладу серії по правилам не допускаються.

TeronUA 
VIP


З нами з: 13.02.09
Востаннє: 29.11.20
Повідомлень: 388

2020-09-08 20:37  
kovpack написано:
Corporate

Згоден, викладати без серії не дуже логічно.

Soundform 
Свій


З нами з: 21.11.13
Востаннє: 28.11.20
Повідомлень: 69

2020-11-07 22:02  
Серіал, на мою думку, цікавіший за Офіс та IT Crowd.
На 3й сезон варто очікувати?

Ваш часовий пояс: GMT + 2 Години

Нова тема   Відповісти