Сини Данії (Sons of Denmark) / Danmarks sønner (2019) 1080p Dan | sub Ukr/Swe

Нові коментарі

Нова тема   Відповісти
Автор Повідомлення
Anonymous 







2020-01-09 02:09  
Сини Данії (Sons of Denmark) / Danmarks sønner (2019) 1080p Dan | sub Ukr/Swe

Сини Данії (Sons of Denmark) / Danmarks sønner (2019) 1080p Dan | sub Ukr/Swe
Англійський постер


Жанр: фантастика, драма, трилер
Країна: Данія



Кінокомпанія: Hyæne Film, Det Danske Filminstitut
Режисер: Улаа Салім
Актори: Mohammed Ismail Mohammed, Zaki Youssef, Rasmus Bjerg

Сюжет:
Данія 2025 року. Через рік після низки терористичних актів у Копенгагені по всій країні посилюються радикальні рухи і зростає етнічна нетерпимість. Незабаром парламентські вибори, і радикальний націоналістичний лідер Мартін Нордал налаштований перемогти в них за всяку ціну. 19-річний Закарія потрапляє в одну з радикальних організацій, де знайомиться з Алі. Вони обидва не можуть погодитися із політикою країни, яка відвертається від власних громадян через їхнє міграційне походження, і вирішують діяти. Але вони просто пішаки в чужих руках. Коли Закарія і Алі починають діяти, доля випробовує їхнє побратимство, а їхній вибір матиме серйозні наслідки в майбутньому.


Тривалість: 01:57:59
Якість:
Відео:
кодек:
розмір кадру: 1920 х 806
бітрейт: 2222 кб/с

Аудіо:
мова: данська/арабська
переклад: оригінал
кодек: 5.1
бітрейт: 384 кб/с

Субтитри:
мова: українська
тип: програмні (м'які)
формат: *.srt

Субтитри:
мова: шведська
тип: програмні (м'які)
формат: *.
Info
Код:
General
Unique ID                                : 326104632579133888927500416008553806908 (0xF55577BA7343FED213C1969018E0BC3C)
Complete name                            : Sons of Denmark (2019) 1080p [Dan_sub_Ukr] [Hurtom].
Format                                   :
Format version                           : Version 4
File size                                : 2.15 GiB
Duration                                 : 1 h 57 min
Overall bit rate                         : 2 608 kb/s
Movie name                               : Сини Данії (2019)
Encoded date                             : UTC 2020-01-08 23:19:20 / UTC 2019-08-29T12:55:13Z
Writing application                      : v37.0.0 ('Leave It') 32-bit
Writing library                          : libebml v1.3.9 + v1.5.2 / Lavf57.7.2
Cover                                    : Yes
Attachments                              : cover.jpg

Video
ID                                       : 1
Format                                   : AVC
Format/Info                              : Advanced Video Codec
Format profile                           : [email protected]
Format settings                          : CABAC / 5 Ref Frames
Format settings, CABAC                   : Yes
Format settings, ReFrames                : 5 frames
Codec ID                                 : V_MPEG4/ISO/AVC
Duration                                 : 1 h 57 min
Bit rate                                 : 2 222 kb/s
Width                                    : 1 920 pixels
Height                                   : 806 pixels
Display aspect ratio                     : 2.40:1
Frame rate mode                          : Constant
Frame rate                               : 25.000 FPS
Color space                              : YUV
Chroma subsampling                       : 4:2:0
Bit depth                                : 8 bits
Scan type                                : Progressive
Bits/(Pixel*Frame)                       : 0.057
Stream size                              : 1.83 GiB (85%)
Writing library                          : core 148 r2708 86b7198
Encoding settings                        : cabac=1 / ref=5 / deblock=1:-1:-1 / analyse=0x1:0x111 / me=umh / subme=8 / psy=1 / psy_rd=1.00:0.15 / mixed_ref=1 / me_range=16 / chroma_me=1 / trellis=1 / 8x8dct=0 / cqm=0 / deadzone=21,11 / fast_pskip=1 / chroma_qp_offset=-3 / threads=25 / lookahead_threads=4 / sliced_threads=0 / nr=0 / decimate=1 / interlaced=0 / bluray_compat=0 / constrained_intra=0 / bframes=3 / b_pyramid=2 / b_adapt=2 / b_bias=0 / direct=3 / weightb=1 / open_gop=0 / weightp=2 / keyint=250 / keyint_min=25 / scenecut=40 / intra_refresh=0 / rc_lookahead=50 / rc=2pass / mbtree=1 / bitrate=2222 / ratetol=1.0 / qcomp=0.60 / qpmin=0 / qpmax=69 / qpstep=4 / cplxblur=20.0 / qblur=0.5 / vbv_maxrate=20000 / vbv_bufsize=25000 / nal_hrd=none / filler=0 / ip_ratio=1.40 / aq=1:1.00
Language                                 : Danish
Default                                  : Yes
Forced                                   : No
Color range                              : Limited
Color primaries                          : BT.709
Transfer characteristics                 : BT.709
Matrix coefficients                      : BT.709

Audio
ID                                       : 2
Format                                   : AC-3
Format/Info                              : Audio Coding 3
Commercial name                          : Dolby Digital
Codec ID                                 : A_AC3
Duration                                 : 1 h 57 min
Bit rate mode                            : Constant
Bit rate                                 : 384 kb/s
Channel(s)                               : 6 channels
Channel layout                           : L R C LFE Ls Rs
Sampling rate                            : 48.0 kHz
Frame rate                               : 31.250 FPS (1536 SPF)
Bit depth                                : 16 bits
Compression mode                         : Lossy
Delay relative to video                  : -45 ms
Stream size                              : 324 MiB (15%)
Title                                    : Surround
Language                                 : Danish
Service kind                             : Complete Main
Default                                  : Yes
Forced                                   : No

Text #1
ID                                       : 3
Format                                   : UTF-8
Codec ID                                 : S_TEXT/UTF8
Codec ID/Info                            : UTF-8 Plain Text
Duration                                 : 1 h 52 min
Bit rate                                 : 68 b/s
Count of elements                        : 1090
Stream size                              : 56.4 KiB (0%)
Language                                 : Ukrainian
Default                                  : Yes
Forced                                   : Yes

Text #2
ID                                       : 4
Format                                   :
Codec ID                                 : S_TEXT/
Codec ID/Info                            : Advanced Sub Station Alpha
Duration                                 : 1 h 52 min
Bit rate                                 : 69 b/s
Count of elements                        : 946
Compression mode                         : Lossless
Stream size                              : 57.5 KiB (0%)
Language                                 : Swedish
Default                                  : No
Forced                                   : No

Скріншоти





Джерело: і artekinofestival.com
Подяка за субтитри пану Форкуш


 Трекер:    Зареєстрований   

Завантажити / скачати фільм українською



відео для новачків



 Зареєстрований:   2020-01-09 02:09
 Розмір:   2.15 GB 
 Оцінка фільму:   2.8/10 (Голосів: 5)
   
Anonymous 







2020-01-09 02:11  
в мережі гуляє норвезький веб-дл, ніби кращий, хоч я його не бачив, але там давно немає жодного сіда
тому буде цей, шведський)

SurFutur 
VIP


З нами з: 12.03.15
Востаннє: 17.01.20
Повідомлень: 270

2020-01-09 02:42  
Anonymous написано:

в мережі гуляє норвезький веб-дл, ніби кращий, хоч я його не бачив, але там давно немає жодного сіда
тому буде цей, шведський)

Може, варто було трохи почекати? Скоро вийде Blu-ray:
https://www.blu-ray.com/movies/Sons-of-Denmark-Blu-ray/255602/
https://www.blu-ray.com/movies/Sons-of-Denmark-Blu-ray/245421/

Просто не впевнений, що Вам захочеться оновлювати субтитрований реліз..)

leicheman 
Відео Гуртом - фільмокрай
Відео Гуртом - фільмокрай


З нами з: 03.07.14
Востаннє: 19.01.20
Повідомлень: 4371

2020-01-09 08:16  
SurFutur написано:
Ваш

ні Happy

mementomori111 
Частий відвідувач


З нами з: 15.03.15
Востаннє: 18.01.20
Повідомлень: 33

2020-01-09 11:25  
Довбана пропаганда. Мусульманський режисер знімає кіно про тяжку жизь мусульман, в Данії і фігових расістів які понімаєш, неправильних політиків вибирають, а мали ж то в них спитати. От паскудна Данія, але так, ми точно її сині, 100%)))).
pravdorub 
Свій


З нами з: 24.12.17
Востаннє: 13.01.20
Повідомлень: 95

2020-01-09 11:50  
mementomori111 написано:
Мусульманський режисер знімає кіно про тяжку жизь мусульман, в Данії і фігових расістів

Мабуть освоїв грант пана Сороса. А ще помітив, що різко зріс відсоток відверто другосортних фільмів "правильного" расово-ґендерного напрямку з точки зору соросят, що були субтитровані українською для комерційних платформ itunes, netflix, ось цього artekinofestival. При тому, що є повно більш хітових фільмів зі значно більшою аудиторією та продажами переглядів без жодної української локалізації. Тобто справа не в прибутках, а в пропаганді.

sarmatianking 
Новенький


З нами з: 02.01.10
Востаннє: 19.01.20
Повідомлень: 10

2020-01-09 12:19  
І тут вже лівацька пропаганда...
Anonymous 







2020-01-09 14:05  
SurFutur написано:
P.S. Прочитайте, будь ласка, мій останній коментар тут: https://toloka.to/t104134 (думаю, це Ваш реліз ).

leicheman написано:
ні

Wide grin
SurFutur написано:
Скоро вийде Blu-ray:

не бачив... може і оновлю, а може коли буде укр озвучення

messer3 
Новенький


З нами з: 06.09.10
Востаннє: 17.01.20
Повідомлень: 19

2020-01-09 17:41  
лайно толєрастичне, навіщо викладувати подібні шлаки адміни???? чи бажаєте щоб наші люди остаточно були оболванені даною лівацькою маячнею та й самі запрошували гвалтівників та різну іншу неслов`янську нечисть в нашу країну!!!
SurFutur 
VIP


З нами з: 12.03.15
Востаннє: 17.01.20
Повідомлень: 270

2020-01-09 21:22  
leicheman написано:
ні

З цими Анонімусами легко помилитись Rolleyes (2)

Додано через 1 хвилину 59 секунд:

Anonymous написано:
коли буде укр озвучення

Малоймовірно, що воно взагалі колись з'явиться.

rusl 
Новенький


З нами з: 01.03.12
Востаннє: 18.01.20
Повідомлень: 8

2020-01-10 20:31  
messer3 написано:
чи бажаєте щоб наші люди остаточно були оболванені даною лівацькою маячнею та й самі запрошували гвалтівників та різну іншу неслов`янську нечисть в нашу країну!!!


От тільки ми маємо 7% території, окупованих якраз таки слов'янами. А щодо місцевих слов'ян, то 73% наших щирих найслов'яніших слов'ян на минулих виборах показали себе як справжні долбо*би, які далекі від України та її сьогоденних потреб.

don pedro 
Попереджень: 1
Попереджень: 1 


З нами з: 29.06.11
Востаннє: 18.01.20
Повідомлень: 15438

2020-01-10 20:37  
messer3 написано:
неслов`янську

Не забувайте, що так звана слов'янська ідеологія - цілком ворожа Україні маячня.

reminor7 
VIP


З нами з: 15.08.11
Востаннє: 18.01.20
Повідомлень: 338

2020-01-12 01:36  
Ахахаха - Режисер Улаа Салім зняв фільм "Сини Данії"...
В головній ролі - Мухамед Ісмаіл Мухамед...
Ахахахаах... Бляха, давно я так не сміявся. До сліз. Гірких.

Anonymous 







2020-01-12 01:51  
reminor7 написано:
Ахахаха - Режисер Улаа Салім зняв фільм "Сини Данії"...

Цитата:
Улаа Салім — данський режисер, народився в Данії 1987 року, обоє батьків родом з Іраку. На створення фільмів Саліма надихає його власний досвід. 2017 року Салім закінчив Національну данську кіношколу й заснував Hyæne Film разом зі своїм партнером, режисером Даніелем Мюлендорфом.SONS OF DENMARK — дебютна стрічка Улаа Саліма.

Ваш часовий пояс: GMT + 2 Години

Нова тема   Відповісти